<?xml version="1.0" standalone="no"?>
<!DOCTYPE svg PUBLIC "-//W3C//DTD SVG 1.1//EN" "http://www.w3.org/Graphics/SVG/1.1/DTD/svg11.dtd" >
<svg xmlns="http://www.w3.org/2000/svg">
<metadata>Generated by IcoMoon</metadata>
<defs>
<font id="icomoon" horiz-adv-x="1024">
<font-face units-per-em="1024" ascent="960" descent="-64" />
<missing-glyph horiz-adv-x="1024" />
<glyph unicode="&#x20;" horiz-adv-x="512" d="" />
<glyph unicode="&#xe901;" glyph-name="pa-behance-feed" d="M407.738 459.171l-9.309 5.585 9.309 7.447c35.375 27.927 55.855 68.887 55.855 113.571 0 80.058-65.164 145.222-145.222 145.222h-232.727c-13.033 0-22.342-9.309-22.342-22.342v-519.447c0-13.033 9.309-22.342 22.342-22.342h234.589c89.367 0 160.116 72.611 160.116 160.116-1.862 52.131-27.927 102.4-72.611 132.189zM318.371 209.687h-210.385v232.727h210.385c63.302 0 115.433-52.131 115.433-115.433 0-65.164-50.269-117.295-115.433-117.295zM107.985 686.313h210.385c55.855 0 98.676-44.684 98.676-98.676s-44.684-98.676-98.676-98.676h-210.385v197.353zM746.589 593.222c-117.295 0-214.109-96.815-214.109-214.109s96.815-214.109 214.109-214.109c57.716 0 111.709 22.342 150.807 63.302 5.585 5.585 5.585 13.033 5.585 16.756s0 9.309-7.447 16.756c-5.585 5.585-13.033 7.447-16.756 7.447-5.585 0-11.171-1.862-16.756-7.447-31.651-31.651-74.473-50.269-119.156-50.269-81.92 0-150.807 57.716-165.702 137.775l-1.862 9.309h359.331c13.033 0 22.342 9.309 22.342 22.342 3.724 117.295-91.229 212.247-210.385 212.247zM914.153 401.455h-335.127l1.862 9.309c14.895 80.058 85.644 137.775 165.702 137.775s150.807-57.716 165.702-137.775l1.862-9.309zM889.949 691.898c0-13.033-9.309-22.342-22.342-22.342h-256.931c-13.033 0-22.342 9.309-22.342 22.342s9.309 22.342 22.342 22.342h256.931c11.171 0 22.342-9.309 22.342-22.342z" />
<glyph unicode="&#xe902;" glyph-name="pa-charts" d="M584.611 896.698c-9.309 0-18.618-7.447-18.618-18.618v-359.331c0-9.309 7.447-18.618 18.618-18.618h359.331c9.309 0 18.618 7.447 18.618 18.618 0 93.091-33.513 180.596-94.953 249.484-70.749 81.92-173.149 128.465-282.996 128.465v0zM603.229 537.367v322.095c91.229-5.585 176.873-46.545 238.313-115.433 50.269-57.716 80.058-130.327 85.644-208.524h-323.956zM875.055 407.040c0 9.309-7.447 18.618-18.618 18.618h-370.502v368.64c0 9.309-7.447 18.618-18.618 18.618-225.28 0-407.738-182.458-407.738-407.738 0-223.418 182.458-407.738 407.738-407.738 225.28 1.862 407.738 184.32 407.738 409.6v0zM467.316 36.538c-204.8 0-370.502 165.702-370.502 370.502 0 197.353 156.393 361.193 351.884 370.502v-370.502c0-9.309 7.447-18.618 18.618-18.618h370.502c-9.309-195.491-171.287-351.884-370.502-351.884v0z" />
<glyph unicode="&#xe903;" glyph-name="pa-color-transition" d="M943.942 401.455h-191.767l135.913 135.913c7.447 7.447 7.447 18.618 0 26.065l-258.793 258.793c-3.724 3.724-7.447 5.585-13.033 5.585s-9.309-1.862-13.033-5.585l-135.913-135.913v199.215c0 9.309-7.447 18.618-18.618 18.618h-366.778c-9.309 0-18.618-7.447-18.618-18.618v-698.182c0-104.262 85.644-189.905 189.905-189.905h690.735c9.309 0 18.618 7.447 18.618 18.618v366.778c0 9.309-7.447 18.618-18.618 18.618zM467.316 628.596l230.865-230.865-126.604-126.604-104.262 104.262v253.207zM467.316 187.345v137.775l78.196-78.196-80.058-80.058c0 5.585 1.862 13.033 1.862 20.48zM100.538 868.771h331.404v-165.702h-331.404v165.702zM100.538 665.833h331.404v-178.735h-331.404v178.735zM100.538 449.862h331.404v-178.735h-331.404v178.735zM277.411 34.676h-22.342c-42.822 0-80.058 16.756-107.985 44.684s-44.684 67.025-44.684 107.985v48.407h331.404v-48.407c-3.724-83.782-72.611-152.669-156.393-152.669zM497.105 34.676h-107.985c18.618 14.895 35.375 31.651 48.407 52.131l59.578 59.578v-111.709zM711.215 34.676h-178.735v148.945l178.735 178.735v-327.68zM489.658 656.524l126.604 126.604 232.727-232.727-126.604-126.604-232.727 232.727zM925.324 34.676h-178.735v329.542h178.735v-329.542zM310.924 159.418c0-24.204-20.48-44.684-46.545-44.684-24.204 0-46.545 20.48-46.545 44.684 0 26.065 20.48 46.545 46.545 46.545s46.545-20.48 46.545-46.545z" />
<glyph unicode="&#xe904;" glyph-name="pa-content-switcher" d="M739.142 669.556h-454.284c-122.88 0-221.556-98.676-221.556-221.556s98.676-221.556 221.556-221.556h454.284c122.88 0 221.556 98.676 221.556 221.556s-98.676 221.556-221.556 221.556zM739.142 263.68h-454.284c-102.4 0-184.32 81.92-184.32 184.32s81.92 184.32 184.32 184.32h454.284c102.4 0 184.32-81.92 184.32-184.32s-81.92-184.32-184.32-184.32zM737.28 611.84c-91.229 0-163.84-72.611-163.84-163.84s72.611-163.84 163.84-163.84c91.229 0 163.84 72.611 163.84 163.84s-72.611 163.84-163.84 163.84zM737.28 319.535c-70.749 0-128.465 57.716-128.465 128.465s57.716 128.465 128.465 128.465c70.749 0 128.465-57.716 128.465-128.465s-57.716-128.465-128.465-128.465z" />
<glyph unicode="&#xe905;" glyph-name="pa-facebook-feed" d="M582.749-0.698h-193.629v402.153h-81.92c-13.033 0-24.204 11.171-24.204 24.204v135.913c0 13.033 11.171 24.204 24.204 24.204h81.92v104.262c0 94.953 59.578 206.662 227.142 206.662 59.578 0 102.4-5.585 104.262-5.585l18.618-1.862-3.724-173.149h-20.48c0 0-44.684 0-93.091 0-35.375 0-40.96-9.309-40.96-44.684v-85.644h132.189c14.895 0 26.065-11.171 24.204-26.065l-5.585-135.913c0-13.033-11.171-24.204-24.204-24.204h-126.604l1.862-400.291zM430.080 38.4h113.571v404.015h150.807l5.585 104.262h-156.393v126.604c0 40.96 9.309 83.782 80.058 83.782 27.927 0 55.855 0 72.611 0l1.862 96.815c-16.756 1.862-46.545 3.724-81.92 3.724-137.775 0-188.044-85.644-188.044-167.564v-143.36h-106.124v-104.262h106.124l1.862-404.015z" />
<glyph unicode="&#xe906;" glyph-name="pa-facebook-reviews" d="M606.953 671.418c0 0 0 0 0 0s0 0 0 0v0c0 0 0 0 0 0zM741.004 583.913c0-1.862 0-1.862 1.862-1.862 0 0 0 0-1.862 1.862 0 0 0 0 0 0s0 0 0 0 0 0 0 0zM800.582 550.4c0 13.033-3.724 24.204-11.171 33.513 13.033 11.171 22.342 27.927 22.342 46.545 0 33.513-26.065 59.578-59.578 59.578h-102.4c3.724 14.895 7.447 33.513 9.309 63.302 0 0 0 0 0 0s0 0 0 1.862c0 0 3.724 35.375 1.862 67.025 0 0 0 1.862 0 1.862v0c-1.862 18.618-5.585 42.822-24.204 57.716-13.033 11.171-29.789 14.895-48.407 13.033-39.098-3.724-46.545-40.96-48.407-61.44 0 0 0 0 0 0 0-1.862 0-1.862 0-3.724-1.862-18.618-7.447-57.716-11.171-70.749 0 0 0 0 0-1.862 0 0 0 0 0-1.862-14.895-55.855-70.749-122.88-96.815-147.084-11.171 13.033-26.065 20.48-42.822 20.48h-119.156c-31.651 0-57.716-27.927-57.716-63.302v-173.149c0-35.375 26.065-63.302 57.716-63.302h119.156c22.342 0 42.822 14.895 52.131 37.236 18.618-16.756 40.96-35.375 70.749-37.236 18.618 0 46.545 0 81.92 0 52.131 0 106.124 0 121.018 0h3.724c1.862 0 1.862 0 3.724 0 0 0 0 0 0 0v0c0 0 0 0 0 0 29.789 1.862 53.993 27.927 53.993 59.578 0 13.033-3.724 24.204-11.171 33.513 1.862 1.862 3.724 3.724 5.585 5.585 11.171 11.171 16.756 26.065 16.756 42.822 0 13.033-3.724 24.204-11.171 33.513 14.895 11.171 24.204 27.927 24.204 46.545zM409.6 392.145c0-14.895-9.309-26.065-20.48-26.065h-119.156c-11.171 0-20.48 11.171-20.48 26.065v173.149c0 14.895 9.309 26.065 20.48 26.065h119.156c11.171 0 20.48-11.171 20.48-26.065v-173.149zM752.175 608.116c-1.862 0-3.724 0-5.585-1.862-7.447-1.862-13.033-9.309-13.033-16.756 0-3.724 0-5.585 1.862-9.309 0-1.862 1.862-1.862 1.862-3.724 1.862-1.862 1.862-1.862 3.724-3.724 0 0 1.862 0 1.862-1.862 1.862 0 1.862-1.862 3.724-1.862 9.309 0 16.756-9.309 16.756-18.618 0-13.033-9.309-22.342-22.342-22.342v0c-7.447 0-14.895-5.585-18.618-13.033-3.724-9.309 3.724-20.48 13.033-22.342s16.756-11.171 16.756-22.342c0-13.033-9.309-22.342-22.342-22.342-9.309 0-14.895-5.585-16.756-13.033 0 0 0-1.862 0-1.862s0 0 0 0 0 0 0 0c0-1.862 0-3.724 0-5.585s0-1.862 0-3.724 1.862-1.862 1.862-3.724c0 0 0 0 0-1.862v0c0 0 0 0 0 0s1.862-1.862 1.862-1.862c0 0 0 0 0 0 1.862-1.862 3.724-3.724 7.447-3.724 9.309-3.724 14.895-11.171 14.895-22.342 0-13.033-9.309-22.342-22.342-22.342 0 0-1.862 0-1.862 0h-1.862c-42.822 0-147.084-1.862-199.215 0-18.618 0-39.098 18.618-53.993 33.513-3.724 3.724-7.447 7.447-11.171 11.171v152.669c0 1.862 0 5.585 0 7.447 37.236 27.927 102.4 113.571 117.295 175.011 0 0 0 0 0 0s0 1.862 0 1.862c3.724 16.756 9.309 57.716 11.171 70.749 0 0 0 0 0 0 0 1.862 0 1.862 0 3.724 3.724 31.651 9.309 31.651 16.756 31.651 9.309 1.862 16.756 0 20.48-3.724 9.309-7.447 11.171-24.204 11.171-33.513v-3.724c0 0 0 0 0 0s0 0 0 0v0c1.862-22.342 0-44.684-1.862-53.993 0 0 0 0 0 0s0-1.862 0-1.862c-3.724-52.131-11.171-72.611-13.033-76.335 0 0 0 0 0 0 0-1.862-1.862-1.862-1.862-3.724v0c0 0 0 0 0 0 0-1.862 0-3.724 0-5.585v0c0 0 0 0 0 0s0 0 0 0 0-1.862 0-1.862 0-1.862 1.862-3.724v0c0-1.862 1.862-3.724 3.724-5.585s1.862-1.862 3.724-3.724c3.724-1.862 5.585-3.724 9.309-3.724h128.465c13.033 0 22.342-9.309 22.342-22.342-3.724-14.895-13.033-24.204-26.065-24.204zM714.938 416.349c0 1.862 0 1.862 0 0 0 0 0 0 0 0s0 0 0 0zM711.215 421.935c0 0 0-1.862 1.862-1.862 0 0 0 0 0 0s-1.862 1.862-1.862 1.862zM342.575 148.247c-3.724 11.171-13.033 18.618-24.204 18.618l-50.269 3.724-18.618 46.545c-3.724 11.171-14.895 16.756-26.065 16.756s-22.342-7.447-26.065-16.756l-18.618-46.545-50.269-3.724c-11.171 0-20.48-7.447-24.204-18.618s0-22.342 9.309-29.789l39.098-31.651-11.171-48.407c-1.862-9.309 0-16.756 5.585-24.204 9.309-11.171 26.065-14.895 37.236-7.447l42.822 26.065 42.822-26.065c3.724-3.724 9.309-5.585 14.895-5.585 9.309 0 16.756 3.724 22.342 11.171s7.447 14.895 5.585 24.204l-18.618 48.407 40.96 33.513c7.447 7.447 11.171 18.618 7.447 29.789zM269.964 107.287c-7.447-5.585-11.171-14.895-7.447-24.204l11.171-46.545-40.96 26.065c-3.724 1.862-7.447 3.724-13.033 3.724s-9.309-1.862-13.033-3.724l-39.098-26.065 11.171 46.545c1.862 9.309-1.862 18.618-7.447 24.204l-37.236 29.789 48.407 3.724c9.309 0 16.756 7.447 20.48 14.895l18.618 44.684 18.618-44.684c3.724-9.309 11.171-14.895 20.48-14.895l48.407-3.724-39.098-29.789zM633.018 148.247c-3.724 11.171-13.033 18.618-24.204 18.618l-50.269 3.724-18.618 46.545c-3.724 11.171-14.895 16.756-26.065 16.756s-22.342-7.447-26.065-16.756l-18.618-46.545-50.269-3.724c-11.171 0-20.48-7.447-24.204-18.618s0-22.342 9.309-29.789l39.098-31.651-11.171-48.407c-1.862-9.309 0-16.756 3.724-24.204 9.309-11.171 26.065-14.895 37.236-7.447l42.822 26.065 42.822-26.065c3.724-3.724 9.309-5.585 14.895-5.585 9.309 0 16.756 3.724 22.342 11.171s7.447 14.895 5.585 24.204l-16.756 48.407 40.96 33.513c7.447 7.447 11.171 18.618 7.447 29.789zM562.269 107.287c-7.447-5.585-11.171-14.895-7.447-24.204l11.171-46.545-40.96 26.065c-3.724 1.862-7.447 3.724-13.033 3.724s-9.309-1.862-13.033-3.724l-40.96-24.204 11.171 46.545c1.862 9.309-1.862 18.618-7.447 24.204l-37.236 29.789 48.407 3.724c9.309 0 16.756 7.447 20.48 14.895l18.618 44.684 18.618-44.684c3.724-9.309 11.171-14.895 20.48-14.895l48.407-3.724-37.236-31.651zM923.462 148.247c-3.724 11.171-13.033 18.618-24.204 18.618l-50.269 3.724-18.618 46.545c-3.724 11.171-14.895 16.756-26.065 16.756s-22.342-7.447-26.065-16.756l-18.618-46.545-52.131-1.862c-11.171 0-20.48-7.447-24.204-18.618s0-22.342 9.309-29.789l39.098-31.651-11.171-48.407c-1.862-9.309 0-16.756 5.585-24.204 9.309-11.171 26.065-14.895 37.236-7.447l42.822 26.065 42.822-26.065c5.585-3.724 9.309-5.585 14.895-5.585 7.447 0 16.756 3.724 22.342 11.171s7.447 14.895 5.585 24.204l-16.756 46.545 40.96 33.513c9.309 7.447 11.171 18.618 7.447 29.789zM852.713 107.287c-7.447-5.585-11.171-14.895-7.447-24.204l11.171-46.545-40.96 26.065c-3.724 1.862-7.447 3.724-13.033 3.724s-9.309-1.862-13.033-3.724l-40.96-24.204 11.171 46.545c1.862 9.309 0 18.618-7.447 24.204l-37.236 29.789 48.407 1.862c9.309 0 16.756 7.447 20.48 14.895l18.618 44.684 18.618-44.684c3.724-9.309 11.171-14.895 20.48-14.895l48.407-3.724-37.236-29.789z" />
<glyph unicode="&#xe907;" glyph-name="pa-flip-box" d="M943.942 820.364h-59.578v59.578c0 11.171-9.309 18.618-18.618 18.618h-785.687c-11.171 0-18.618-9.309-18.618-18.618v-785.687c0-11.171 9.309-18.618 18.618-18.618h59.578v-59.578c0-11.171 9.309-18.618 20.48-18.618h783.825c11.171 0 18.618 9.309 18.618 18.618v785.687c0 9.309-7.447 18.618-18.618 18.618zM100.538 114.735v744.727h744.727v-744.727h-744.727zM923.462 36.538h-744.727v39.098h687.011c11.171 0 18.618 9.309 18.618 18.618v687.011h39.098v-744.727zM716.8 656.524h-487.796c-7.447 0-13.033 9.309-13.033 20.48s5.585 20.48 13.033 20.48h487.796c7.447 0 13.033-9.309 13.033-20.48s-5.585-20.48-13.033-20.48zM716.8 468.48h-487.796c-7.447 0-13.033 9.309-13.033 20.48s5.585 20.48 13.033 20.48h487.796c7.447 0 13.033-9.309 13.033-20.48 0-13.033-5.585-20.48-13.033-20.48zM716.8 278.575h-487.796c-7.447 0-13.033 9.309-13.033 20.48s5.585 20.48 13.033 20.48h487.796c7.447 0 13.033-9.309 13.033-20.48s-5.585-20.48-13.033-20.48z" />
<glyph unicode="&#xe908;" glyph-name="pa-google-reviews" d="M802.444 654.662c-1.862 7.447-9.309 14.895-16.756 14.895h-268.102c-9.309 0-18.618-7.447-18.618-18.618v-109.847c0-9.309 7.447-18.618 18.618-18.618h121.018c-13.033-20.48-29.789-39.098-52.131-52.131s-48.407-20.48-74.473-20.48c-61.44 0-117.295 39.098-137.775 94.953-5.585 16.756-9.309 33.513-9.309 52.131 0 16.756 1.862 33.513 7.447 48.407 20.48 59.578 76.335 98.676 139.636 98.676 27.927 0 53.993-7.447 78.196-22.342 5.585-3.724 14.895-3.724 20.48 1.862l89.367 74.473c5.585 5.585 7.447 9.309 7.447 14.895s-1.862 11.171-5.585 13.033c-52.131 44.684-119.156 68.887-188.044 68.887-163.84 0-296.029-132.189-296.029-296.029 0-48.407 13.033-96.815 35.375-139.636 52.131-96.815 150.807-156.393 260.655-156.393 68.887 0 134.051 24.204 188.044 67.025 52.131 42.822 87.505 102.4 102.4 167.564 3.724 20.48 5.585 40.96 5.585 61.44-1.862 18.618-3.724 37.236-7.447 55.855zM512 859.462c52.131 0 106.124-16.756 148.945-46.545l-63.302-52.131c-26.065 13.033-55.855 20.48-85.644 20.48-68.887 0-132.189-39.098-163.84-100.538l-61.44 50.269c48.407 80.058 134.051 128.465 225.28 128.465zM335.127 647.215c-3.724-14.895-5.585-31.651-5.585-48.407 0-18.618 1.862-35.375 7.447-52.131l-63.302-52.131c-14.895 33.513-22.342 68.887-22.342 104.262s7.447 68.887 20.48 98.676l63.302-50.269zM512 340.015c-89.367 0-175.011 48.407-221.556 124.742l61.44 50.269c13.033-24.204 33.513-46.545 55.855-63.302 31.651-22.342 67.025-33.513 106.124-33.513 27.927 0 55.855 7.447 81.92 18.618l63.302-52.131c-44.684-29.789-94.953-44.684-147.084-44.684zM767.069 544.815c-11.171-53.993-39.098-102.4-80.058-139.636l-61.44 50.269c26.065 20.48 46.545 48.407 57.716 80.058 1.862 5.585 1.862 11.171-1.862 16.756s-9.309 7.447-14.895 7.447h-130.327v74.473h234.589c1.862-11.171 1.862-22.342 1.862-33.513 0-18.618-1.862-37.236-5.585-55.855zM338.851 150.109c-3.724 11.171-13.033 18.618-26.065 20.48l-52.131 3.724-20.48 48.407c-3.724 11.171-14.895 18.618-26.065 18.618s-22.342-7.447-26.065-18.618l-18.618-48.407-52.131-3.724c-11.171 0-22.342-7.447-26.065-18.618s0-24.204 9.309-31.651l39.098-31.651-9.309-52.131c-1.862-9.309 0-16.756 3.724-24.204 9.309-11.171 26.065-14.895 37.236-7.447l42.822 27.927 44.684-27.927c5.585-3.724 9.309-5.585 14.895-5.585 9.309 0 16.756 3.724 22.342 11.171s7.447 16.756 5.585 24.204l-11.171 50.269 40.96 33.513c9.309 7.447 11.171 20.48 7.447 31.651zM266.24 107.287c-7.447-5.585-11.171-14.895-7.447-24.204l11.171-46.545-40.96 26.065c-3.724 1.862-7.447 3.724-13.033 3.724-3.724 0-9.309-1.862-13.033-3.724l-40.96-26.065 11.171 46.545c1.862 9.309-1.862 18.618-7.447 24.204l-37.236 31.651 48.407 3.724c9.309 0 16.756 5.585 20.48 14.895l18.618 46.545 18.618-46.545c3.724-9.309 11.171-14.895 20.48-14.895l48.407-3.724-37.236-31.651zM634.88 150.109c-3.724 11.171-13.033 18.618-26.065 20.48l-50.269 1.862-20.48 48.407c-3.724 11.171-14.895 18.618-26.065 18.618s-22.342-7.447-26.065-18.618l-18.618-48.407-52.131-3.724c-11.171 0-22.342-7.447-26.065-18.618s0-24.204 9.309-31.651l39.098-31.651-13.033-50.269c-1.862-9.309 0-16.756 5.585-24.204 9.309-11.171 26.065-14.895 37.236-7.447l42.822 27.927 44.684-27.927c3.724-3.724 9.309-5.585 14.895-5.585 9.309 0 16.756 3.724 22.342 11.171s7.447 16.756 5.585 24.204l-11.171 50.269 40.96 33.513c7.447 7.447 11.171 20.48 7.447 31.651zM562.269 107.287c-7.447-5.585-11.171-14.895-9.309-24.204l11.171-46.545-40.96 26.065c-3.724 1.862-7.447 3.724-13.033 3.724s-9.309-1.862-13.033-3.724l-40.96-26.065 11.171 46.545c1.862 9.309 0 18.618-7.447 24.204l-37.236 31.651 48.407 3.724c9.309 0 16.756 5.585 20.48 14.895l18.618 46.545 18.618-46.545c3.724-9.309 11.171-14.895 20.48-14.895l48.407-3.724-35.375-31.651zM930.909 150.109c-3.724 11.171-13.033 18.618-26.065 20.48l-52.131 3.724-20.48 48.407c-3.724 11.171-14.895 18.618-26.065 18.618s-22.342-7.447-26.065-18.618l-18.618-48.407-52.131-3.724c-11.171 0-22.342-7.447-26.065-18.618s0-24.204 9.309-31.651l39.098-31.651-13.033-50.269c-1.862-9.309 0-16.756 3.724-24.204 9.309-11.171 26.065-14.895 37.236-7.447l42.822 27.927 44.684-27.927c5.585-3.724 9.309-5.585 14.895-5.585 9.309 0 16.756 3.724 22.342 11.171s7.447 14.895 5.585 24.204l-9.309 48.407 40.96 33.513c9.309 7.447 13.033 20.48 9.309 31.651zM858.298 107.287c-7.447-5.585-11.171-14.895-7.447-24.204l11.171-46.545-42.822 24.204c-3.724 1.862-7.447 3.724-13.033 3.724s-9.309-1.862-13.033-3.724l-40.96-26.065 11.171 46.545c1.862 9.309-1.862 18.618-7.447 24.204l-37.236 31.651 48.407 3.724c9.309 0 16.756 5.585 20.48 14.895l18.618 46.545 18.618-46.545c3.724-9.309 11.171-14.895 20.48-14.895l48.407-3.724-35.375-29.789z" />
<glyph unicode="&#xe909;" glyph-name="pa-gradients" d="M828.509 764.509c-83.782 83.782-197.353 130.327-316.509 130.327s-232.727-46.545-316.509-130.327c-83.782-83.782-130.327-197.353-130.327-316.509s46.545-232.727 130.327-316.509c83.782-83.782 197.353-130.327 316.509-130.327s232.727 46.545 316.509 130.327c83.782 83.782 130.327 197.353 130.327 316.509s-46.545 232.727-130.327 316.509zM925.324 464.756h-169.425c-3.724 52.131-24.204 102.4-59.578 141.498l121.018 121.018c65.164-70.749 102.4-163.84 107.985-262.516zM495.244 861.324v-31.651c0-9.309 7.447-16.756 16.756-16.756s16.756 7.447 16.756 16.756v31.651c96.815-3.724 189.905-42.822 262.516-107.985l-121.018-121.018c-40.96 35.375-89.367 55.855-141.498 59.578v85.644c0 9.309-7.447 16.756-16.756 16.756s-16.756-7.447-16.756-16.756v-87.505c-52.131-3.724-102.4-24.204-141.498-59.578l-121.018 121.018c70.749 67.025 163.84 104.262 262.516 109.847zM98.676 431.244h70.749c9.309 0 16.756 7.447 16.756 16.756s-7.447 16.756-16.756 16.756h-70.749c3.724 96.815 42.822 189.905 107.985 262.516l121.018-121.018c-35.375-40.96-55.855-89.367-59.578-141.498h-44.684c-9.309 0-16.756-7.447-16.756-16.756s7.447-16.756 16.756-16.756h46.545c3.724-52.131 24.204-102.4 59.578-141.498l-121.018-121.018c-67.025 70.749-104.262 163.84-109.847 262.516zM495.244 205.964v-169.425c-96.815 3.724-189.905 42.822-262.516 107.985l121.018 121.018c39.098-35.375 87.505-55.855 141.498-59.578zM364.916 300.916c-39.098 39.098-61.44 91.229-61.44 147.084s22.342 107.985 61.44 147.084c39.098 39.098 91.229 61.44 147.084 61.44s107.985-22.342 147.084-61.44c39.098-39.098 61.44-91.229 61.44-147.084s-22.342-107.985-61.44-147.084c-39.098-39.098-91.229-61.44-147.084-61.44s-107.985 22.342-147.084 61.44zM815.476 168.727l-63.302 63.302c-7.447 7.447-18.618 7.447-24.204 0-3.724-3.724-5.585-7.447-5.585-13.033 0-3.724 1.862-9.309 5.585-13.033l63.302-63.302c-72.611-67.025-163.84-104.262-262.516-107.985v169.425c52.131 3.724 102.4 24.204 141.498 59.578l24.204-24.204c7.447-7.447 18.618-5.585 24.204 0 3.724 3.724 5.585 7.447 5.585 13.033 0 3.724-1.862 9.309-5.585 13.033l-24.204 24.204c35.375 40.96 55.855 89.367 59.578 141.498h169.425c-3.724-98.676-40.96-191.767-107.985-262.516z" />
<glyph unicode="&#xe90a;" glyph-name="pa-horizontal-scroll" d="M1027.864 691.442v27.049h-1027.864v-27.049h127.517v-488.815h-127.517v-27.049h1027.864v27.049h-127.517v488.815zM873.298 202.626h-718.732v488.815h718.732zM722.21 447.034c-0.055-2.302-0.924-4.391-2.328-6.001l0.010 0.011-61.054-61.633c-1.574-1.439-3.679-2.321-5.989-2.321s-4.416 0.882-5.996 2.327l0.007-0.006c-1.625 1.489-2.64 3.621-2.64 5.989s1.015 4.5 2.634 5.984l0.006 0.005 46.756 46.756h-359.366l46.756-46.756c1.854-1.57 3.023-3.899 3.023-6.501 0-4.695-3.806-8.501-8.501-8.501-2.602 0-4.931 1.169-6.49 3.010l-0.010 0.012-61.054 61.054c-1.439 1.574-2.321 3.679-2.321 5.989s0.882 4.416 2.327 5.996l-0.006-0.007 61.054 62.213c1.574 1.439 3.679 2.321 5.989 2.321s4.416-0.882 5.996-2.327l-0.007 0.006c1.625-1.489 2.64-3.621 2.64-5.989s-1.015-4.5-2.634-5.984l-0.006-0.005-46.37-46.37h358.593l-46.37 46.37c-1.854 1.57-3.023 3.899-3.023 6.501 0 4.695 3.806 8.501 8.501 8.501 2.602 0 4.931-1.169 6.49-3.010l0.010-0.012 61.054-61.054c1.444-1.653 2.325-3.831 2.325-6.214 0-0.125-0.002-0.249-0.007-0.372l0.001 0.018z" />
<glyph unicode="&#xe90b;" glyph-name="pa-hot-spot" d="M927.185 643.491h-286.72v158.255c0 26.065-26.065 46.545-52.131 46.545h-389.12c-26.065 0-53.993-20.48-53.993-46.545v-158.255h-48.407c-20.48 0-35.375-16.756-35.375-35.375v-525.033c0-20.48 16.756-35.375 35.375-35.375h830.371c20.48 0 35.375 16.756 35.375 35.375v525.033c0 20.48-14.895 35.375-35.375 35.375zM180.596 801.745c0 5.585 11.171 11.171 18.618 11.171h389.12c5.585 0 16.756-5.585 16.756-11.171v-173.149c0-7.447-11.171-18.618-16.756-18.618h-85.644c-5.585 0-13.033 1.862-16.756-3.724l-91.229-89.367-93.091 89.367c-3.724 3.724-11.171 3.724-16.756 3.724h-85.644c-7.447 0-18.618 13.033-18.618 18.618v173.149zM96.815 81.222c-1.862 0-3.724 1.862-3.724 3.724v46.545c1.862 0 1.862 1.862 3.724 1.862l186.182 186.182c0-1.862 0-3.724 0-5.585 0-5.585 1.862-13.033 3.724-18.618 3.724-14.895 9.309-26.065 16.756-37.236l83.782-122.88 26.065 37.236 18.618 26.065 24.204 35.375 1.862 3.724 85.644-87.505 67.025-68.887h-513.862zM312.785 321.396c0 7.447 0 14.895 1.862 22.342 3.724 14.895 9.309 29.789 20.48 39.098 5.585 5.585 13.033 11.171 18.618 14.895 11.171 5.585 22.342 7.447 33.513 7.447 20.48 0 39.098-7.447 53.993-22.342 9.309-9.309 16.756-22.342 20.48-35.375 1.862-3.724 1.862-9.309 1.862-14.895 0-9.309 0-20.48-1.862-29.789 0-3.724-1.862-7.447-3.724-11.171-1.862-7.447-5.585-13.033-9.309-18.618l-13.033-18.618-48.407-68.887-61.44 87.505c-7.447 14.895-13.033 31.651-13.033 48.407zM660.945 81.222l-80.058 81.92 117.295 117.295 199.215-199.215h-236.451zM929.047 96.116l-219.695 219.695c-3.724 3.724-7.447 5.585-11.171 5.585s-9.309-1.862-11.171-5.585l-128.465-128.465-78.196 78.196c1.862 1.862 1.862 3.724 3.724 5.585 5.585 11.171 9.309 26.065 11.171 39.098 0 1.862 0 5.585 0 7.447 0 11.171 0 24.204-3.724 35.375 0 3.724-1.862 5.585-1.862 9.309-5.585 16.756-13.033 29.789-24.204 40.96-20.48 20.48-46.545 31.651-74.473 31.651s-53.993-11.171-74.473-31.651c-1.862-1.862-5.585-5.585-7.447-9.309-3.724-5.585-7.447-11.171-11.171-16.756l-202.938-199.215v428.218c0 1.862 1.862 3.724 3.724 3.724h52.131c9.309-18.618 27.927-33.513 48.407-33.513h81.92l111.709-111.709 111.709 111.709h81.92c18.618 0 37.236 14.895 46.545 33.513h290.444c1.862 0 3.724-1.862 3.724-3.724v-510.138zM389.12 371.665c-3.724 0-5.585 0-9.309 0-14.895-3.724-26.065-14.895-31.651-29.789-1.862-3.724-1.862-7.447-1.862-11.171 0-22.342 18.618-40.96 40.96-40.96 3.724 0 7.447 0 11.171 1.862 14.895 3.724 26.065 16.756 27.927 31.651 0 1.862 1.862 5.585 1.862 9.309 3.724 20.48-14.895 39.098-39.098 39.098zM389.12 312.087c-11.171 0-18.618 7.447-18.618 18.618s7.447 18.618 18.618 18.618c9.309 0 18.618-7.447 18.618-18.618 0-9.309-7.447-18.618-18.618-18.618zM778.24 384.698c-42.822 0-78.196 35.375-78.196 78.196s35.375 78.196 78.196 78.196c42.822 0 78.196-35.375 78.196-78.196s-35.375-78.196-78.196-78.196zM778.24 507.578c-24.204 0-44.684-20.48-44.684-44.684s20.48-44.684 44.684-44.684c24.204 0 44.684 20.48 44.684 44.684s-20.48 44.684-44.684 44.684z" />
<glyph unicode="&#xe90c;" glyph-name="pa-icon-box" d="M889.949 682.589h-141.498c-9.309 121.018-111.709 217.833-234.589 217.833s-225.28-94.953-234.589-217.833h-145.222c-11.171 0-20.48-7.447-20.48-16.756v-651.636c0-9.309 9.309-16.756 20.48-16.756h755.898c11.171 0 20.48 7.447 20.48 16.756v651.636c0 9.309-9.309 16.756-20.48 16.756zM513.862 859.462c102.4 0 186.182-78.196 195.491-176.873 0-5.585 0-11.171 0-18.618 0-5.585 0-11.171 0-16.756-7.447-100.538-93.091-178.735-195.491-178.735s-186.182 78.196-195.491 178.735c0 5.585 0 11.171 0 16.756s0 11.171 0 18.618c9.309 98.676 93.091 176.873 195.491 176.873zM869.469 30.953h-714.938v616.262h124.742c7.447-122.88 109.847-219.695 234.589-219.695s227.142 96.815 234.589 219.695h122.88v-616.262z" />
<glyph unicode="&#xe90d;" glyph-name="pa-ihover" d="M949.527 323.258c11.171 3.724 11.171 20.48 0 24.204l-93.091 42.822-52.131 24.204-409.6 191.767c-11.171 5.585-22.342-5.585-18.618-16.756l91.229-282.996 11.171-37.236 83.782-264.378c3.724-11.171 18.618-13.033 24.204-1.862l74.473 137.775c3.724 7.447 14.895 9.309 22.342 1.862l124.742-139.636c5.585-5.585 13.033-5.585 18.618-1.862l93.091 81.92c5.585 5.585 5.585 13.033 1.862 18.618l-124.742 139.636c-5.585 7.447-3.724 18.618 5.585 20.48l147.084 61.44zM860.16 88.669l-27.927-26.065c-5.585-5.585-14.895-3.724-18.618 1.862l-135.913 154.531c-5.585 7.447-16.756 5.585-22.342-1.862l-55.855-104.262c-5.585-11.171-20.48-9.309-24.204 1.862l-53.993 167.564-11.171 37.236-63.302 189.905c-3.724 11.171 7.447 20.48 18.618 16.756l377.949-175.011c11.171-5.585 11.171-20.48 0-24.204l-109.847-42.822c-9.309-3.724-11.171-14.895-5.585-20.48l135.913-154.531c1.862-5.585 1.862-14.895-3.724-20.48zM67.025 784.989c0-7.447 3.724-13.033 9.309-14.895l40.96-18.618c13.033-5.585 22.342-14.895 27.927-27.927l18.618-40.96c1.862-5.585 9.309-9.309 14.895-9.309 7.447 0 13.033 3.724 14.895 9.309l18.618 40.96c5.585 13.033 16.756 24.204 29.789 29.789l40.96 18.618c5.585 1.862 9.309 9.309 9.309 14.895s-3.724 13.033-9.309 14.895l-40.96 18.618c-13.033 5.585-24.204 16.756-29.789 29.789l-18.618 40.96c-1.862 3.724-7.447 7.447-14.895 7.447-5.585 0-11.171-3.724-14.895-9.309l-18.618-40.96c-5.585-13.033-14.895-24.204-27.927-29.789l-40.96-18.618c-5.585-1.862-9.309-7.447-9.309-14.895zM122.88 784.989l7.447 3.724c20.48 9.309 37.236 26.065 46.545 46.545l3.724 7.447 3.724-7.447c9.309-20.48 26.065-37.236 46.545-46.545l7.447-3.724-7.447-3.724c-20.48-9.309-37.236-26.065-46.545-46.545l-3.724-7.447-3.724 9.309c-9.309 20.48-26.065 37.236-46.545 46.545l-7.447 1.862zM121.018 325.12c0-7.447 3.724-13.033 9.309-14.895l40.96-18.618c13.033-5.585 24.204-16.756 29.789-29.789l18.618-40.96c1.862-5.585 9.309-9.309 14.895-9.309 7.447 0 13.033 3.724 14.895 9.309l18.618 40.96c5.585 13.033 16.756 24.204 29.789 29.789l40.96 18.618c5.585 1.862 9.309 9.309 9.309 14.895s-3.724 13.033-9.309 14.895l-40.96 18.618c-13.033 5.585-24.204 16.756-29.789 29.789l-18.618 40.96c-1.862 5.585-9.309 9.309-14.895 9.309-7.447 0-13.033-3.724-14.895-9.309l-18.618-40.96c-5.585-13.033-16.756-24.204-29.789-29.789l-40.96-18.618c-5.585-1.862-9.309-7.447-9.309-14.895zM178.735 325.12l7.447 3.724c20.48 9.309 37.236 26.065 46.545 46.545l3.724 7.447 3.724-7.447c9.309-20.48 26.065-37.236 46.545-46.545l7.447-3.724-7.447-3.724c-20.48-9.309-37.236-26.065-46.545-46.545l-5.585-3.724-3.724 7.447c-9.309 20.48-26.065 37.236-46.545 46.545h-5.585zM523.171 729.135c0-7.447 3.724-13.033 9.309-14.895l52.131-24.204c18.618-7.447 33.513-22.342 40.96-40.96l24.204-52.131c1.862-5.585 9.309-9.309 14.895-9.309 7.447 0 13.033 3.724 14.895 9.309l24.204 52.131c7.447 18.618 22.342 33.513 40.96 40.96l52.131 24.204c5.585 1.862 9.309 9.309 9.309 14.895 0 7.447-3.724 13.033-9.309 14.895l-52.131 24.204c-18.618 7.447-33.513 22.342-40.96 40.96l-24.204 52.131c-1.862 5.585-9.309 9.309-14.895 9.309-7.447 0-13.033-3.724-14.895-9.309l-24.204-52.131c-7.447-18.618-22.342-33.513-40.96-40.96l-52.131-24.204c-5.585-1.862-9.309-7.447-9.309-14.895zM580.887 729.135l18.618 9.309c26.065 11.171 46.545 31.651 57.716 57.716l9.309 18.618 9.309-18.618c11.171-26.065 31.651-46.545 57.716-57.716l18.618-9.309-18.618-9.309c-26.065-11.171-46.545-31.651-57.716-57.716l-9.309-18.618-9.309 18.618c-11.171 26.065-31.651 46.545-57.716 57.716l-18.618 9.309z" />
<glyph unicode="&#xe90e;" glyph-name="pa-image-accordion" d="M847.127 677.004c0 9.309-7.447 14.895-14.895 14.895h-640.465c-9.309 0-14.895-7.447-14.895-14.895v-458.007c0-9.309 7.447-14.895 14.895-14.895h640.465c9.309 0 14.895 7.447 14.895 14.895v458.007zM817.338 662.109v-275.549l-167.564 119.156c-5.585 3.724-14.895 3.724-20.48-1.862l-126.604-126.604-147.084 72.611c-3.724 1.862-9.309 1.862-14.895 0l-135.913-78.196v290.444h612.538zM206.662 336.291l143.36 83.782 130.327-63.302-124.742-122.88h-150.807v102.4zM400.291 232.029l243.898 240.175 175.011-122.88v-115.433h-418.909zM478.487 461.033c35.375 0 65.164 29.789 65.164 65.164s-29.789 65.164-65.164 65.164-65.164-29.789-65.164-65.164c0 0 0 0 0 0-1.862-35.375 27.927-65.164 65.164-65.164zM478.487 561.571c18.618 0 35.375-14.895 35.375-35.375 0-18.618-14.895-35.375-35.375-35.375-18.618 0-35.375 14.895-35.375 35.375 0 18.618 14.895 35.375 35.375 35.375v0zM76.335 634.182c-9.309 0-14.895-7.447-14.895-14.895v-344.436c0-9.309 7.447-14.895 14.895-14.895s14.895 7.447 14.895 14.895v344.436c0 9.309-5.585 14.895-14.895 14.895zM947.665 634.182c-9.309 0-14.895-7.447-14.895-14.895v-344.436c0-9.309 7.447-14.895 14.895-14.895 9.309 0 14.895 7.447 14.895 14.895v344.436c0 9.309-7.447 14.895-14.895 14.895z" />
<glyph unicode="&#xe90f;" glyph-name="pa-image-comparison" d="M921.6 730.996h-819.2c-22.342 0-40.96-18.618-40.96-42.822v-480.349c0-24.204 18.618-42.822 40.96-42.822h819.2c22.342 0 40.96 18.618 40.96 42.822v480.349c0 24.204-18.618 42.822-40.96 42.822zM493.382 200.378h-390.982c-3.724 0-5.585 3.724-5.585 7.447v480.349c0 3.724 1.862 7.447 5.585 7.447h390.982v-96.815c-72.611-9.309-130.327-72.611-130.327-148.945s57.716-141.498 130.327-148.945v-100.538zM396.567 448c0 65.164 52.131 117.295 115.433 117.295s115.433-52.131 115.433-117.295-52.131-117.295-115.433-117.295-115.433 52.131-115.433 117.295zM927.185 207.825c0-3.724-1.862-7.447-5.585-7.447h-390.982v96.815c72.611 9.309 130.327 72.611 130.327 148.945s-57.716 141.498-130.327 148.945v96.815h390.982c3.724 0 5.585-3.724 5.585-7.447v-476.625zM495.244 397.731c-3.724-3.724-7.447-3.724-11.171-3.724s-7.447 1.862-11.171 3.724l-39.098 39.098c-5.585 5.585-5.585 14.895 0 20.48l39.098 39.098c3.724 1.862 7.447 3.724 11.171 3.724s7.447-1.862 11.171-3.724c5.585-5.585 5.585-14.895 0-20.48l-29.789-27.927 29.789-29.789c5.585-5.585 5.585-14.895 0-20.48zM590.196 436.829l-39.098-39.098c-3.724-3.724-7.447-3.724-11.171-3.724s-7.447 1.862-11.171 3.724c-5.585 5.585-5.585 14.895 0 20.48l29.789 29.789-29.789 29.789c-5.585 5.585-5.585 14.895 0 20.48s14.895 5.585 20.48 0l39.098-39.098c7.447-5.585 7.447-16.756 1.862-22.342z" />
<glyph unicode="&#xe910;" glyph-name="pa-image-layers" d="M889.949 358.633h-91.229v158.255h26.065c35.375 0 65.164 29.789 65.164 65.164v251.345c0 35.375-29.789 65.164-65.164 65.164h-253.207c-35.375 0-65.164-29.789-65.164-65.164v-81.92h-134.051v48.407c0 37.236-26.065 65.164-61.44 65.164h-182.458c-37.236 0-67.025-29.789-67.025-65.164v-184.32c0-35.375 29.789-61.44 67.025-61.44h113.571v-180.596h-113.571c-35.375 0-65.164-29.789-65.164-65.164v-171.287c0-35.375 29.789-65.164 65.164-65.164h299.753c35.375 0 65.164 29.789 65.164 65.164v55.855h109.847v-132.189c0-37.236 26.065-65.164 61.44-65.164h227.142c35.375 0 72.611 26.065 72.611 65.164v227.142c-1.862 35.375-37.236 70.749-74.473 70.749zM539.927 833.396c0 18.618 14.895 33.513 33.513 33.513h253.207c18.618 0 33.513-14.895 33.513-33.513v-253.207c0-18.618-14.895-33.513-33.513-33.513h-255.069c-18.618 0-33.513 14.895-33.513 33.513v253.207zM128.465 587.636c-16.756 0-35.375 9.309-35.375 29.789v182.458c0 16.756 16.756 33.513 33.513 33.513h184.32c18.618 0 27.927-16.756 27.927-33.513v-48.407h-29.789c-39.098 0-68.887-26.065-68.887-61.44v-102.4h-111.709zM459.869 137.076c0-18.618-14.895-33.513-33.513-33.513h-297.891c-18.618 0-33.513 14.895-33.513 33.513v171.287c0 18.618 14.895 33.513 33.513 33.513h299.753c18.618 0 33.513-14.895 33.513-33.513v-171.287zM493.382 226.444v81.92c0 35.375-29.789 65.164-65.164 65.164h-152.669v316.509c0 18.618 18.618 27.927 35.375 27.927h195.491v-137.775c0-35.375 29.789-65.164 65.164-65.164h193.629v-249.484c0-18.618-13.033-39.098-31.651-39.098h-240.175zM930.909 60.742c0-16.756-22.342-31.651-40.96-31.651h-225.28c-20.48 0-29.789 14.895-29.789 31.651v132.189h100.538c37.236 0 63.302 37.236 63.302 72.611v59.578h91.229c18.618 0 40.96-20.48 40.96-37.236v-227.142z" />
<glyph unicode="&#xe911;" glyph-name="pa-instagram-feed" d="M683.287 896.698h-342.575c-152.669 0-277.411-124.742-277.411-277.411v-344.436c0-152.669 124.742-277.411 277.411-277.411h344.436c152.669 0 277.411 124.742 277.411 277.411v344.436c-1.862 152.669-126.604 277.411-279.273 277.411zM923.462 276.713c0-132.189-107.985-238.313-238.313-238.313h-344.436c-132.189 0-238.313 107.985-238.313 238.313v342.575c0 132.189 107.985 238.313 238.313 238.313h344.436c132.189 0 238.313-107.985 238.313-238.313v-342.575zM512 699.345c-137.775 0-251.345-111.709-251.345-251.345 0-137.775 111.709-251.345 251.345-251.345 137.775 0 251.345 111.709 251.345 251.345 0 137.775-113.571 251.345-251.345 251.345zM512 235.753c-117.295 0-212.247 94.953-212.247 212.247s94.953 212.247 212.247 212.247 212.247-94.953 212.247-212.247-94.953-212.247-212.247-212.247zM813.615 682.589c0-20.565-16.671-37.236-37.236-37.236s-37.236 16.671-37.236 37.236c0 20.565 16.671 37.236 37.236 37.236s37.236-16.671 37.236-37.236z" />
<glyph unicode="&#xe912;" glyph-name="pa-magic-section" d="M76.335 14.196v0 0 0zM955.113 609.978l-85.644 85.644 42.822 128.465c1.862 7.447 0 14.895-5.585 20.48-3.724 3.724-11.171 5.585-18.618 3.724l-128.465-42.822-85.644 85.644c-5.585 5.585-14.895 7.447-22.342 3.724s-11.171-11.171-11.171-20.48l14.895-126.604-128.465-70.749c-7.447-3.724-11.171-13.033-9.309-20.48 0-3.724 1.862-7.447 5.585-11.171 1.862-1.862 5.585-3.724 9.309-5.585l117.295-26.065-573.44-571.578c-3.724-3.724-5.585-9.309-5.585-14.895s1.862-11.171 5.585-14.895c3.724-3.724 9.309-5.585 14.895-5.585s11.171 1.862 14.895 5.585l573.44 569.716 26.065-115.433c1.862-7.447 9.309-14.895 16.756-14.895h1.862c7.447 0 13.033 3.724 16.756 11.171l70.749 128.465 126.604-14.895c9.309 0 16.756 3.724 20.48 11.171s3.724 16.756-3.724 22.342zM76.335 14.196v0 0 0zM804.305 630.458c-7.447 0-14.895-3.724-20.48-9.309l-52.131-94.953-24.204 102.4c-1.862 7.447-7.447 13.033-14.895 14.895l-100.538 22.342 94.953 52.131c7.447 3.724 11.171 11.171 9.309 20.48l-9.309 83.782 53.993-53.993c5.585-5.585 13.033-7.447 20.48-5.585l102.4 33.513-33.513-102.4c-1.862-7.447 0-14.895 5.585-20.48l53.993-53.993-85.644 11.171z" />
<glyph unicode="&#xe913;" glyph-name="pa-messenger-chat" d="M130.327 79.36v227.142c-46.545 53.993-70.749 113.571-70.749 176.873 0 182.458 202.938 331.404 452.422 331.404s452.422-148.945 452.422-331.404c0-182.458-202.938-331.404-452.422-331.404-67.025 0-132.189 11.171-193.629 31.651l-188.044-104.262zM512 773.818c-225.28 0-407.738-130.327-407.738-288.582 0-53.993 22.342-107.985 65.164-154.531l5.585-5.585v-169.425l139.636 78.196 9.309-3.724c57.716-22.342 122.88-33.513 188.044-33.513 225.28 0 407.738 130.327 407.738 288.582s-182.458 288.582-407.738 288.582z" />
<glyph unicode="&#xe914;" glyph-name="pa-multi-scroll" d="M942.080 820.364h-428.218c0 0-1.862 0-1.862 0s-1.862 0-1.862 0h-428.218c-11.171 0-20.48-9.309-20.48-20.48v-703.767c0-11.171 9.309-20.48 20.48-20.48h426.356c0 0 1.862 0 1.862 0s1.862 0 1.862 0h426.356c11.171 0 20.48 9.309 20.48 20.48v703.767c3.724 11.171-5.585 20.48-16.756 20.48zM98.676 784.989h396.567v-673.978h-396.567v673.978zM925.324 111.011h-394.705v673.978h396.567v-673.978zM439.389 477.789c0-5.585-1.862-9.309-5.585-13.033-7.447-7.447-18.618-7.447-24.204 0l-89.367 91.229v-256.931c0-9.309-7.447-18.618-18.618-18.618-9.309 0-18.618 7.447-18.618 18.618v255.069l-98.676-98.676c-7.447-7.447-18.618-7.447-24.204 0-3.724 3.724-5.585 7.447-5.585 13.033s1.862 9.309 5.585 13.033l128.465 128.465c1.862 1.862 3.724 3.724 5.585 3.724 3.724 1.862 9.309 1.862 13.033 0 1.862 0 3.724-1.862 5.585-3.724l119.156-119.156c5.585-5.585 7.447-11.171 7.447-13.033zM869.469 427.52c0-5.585-1.862-9.309-5.585-13.033l-128.465-128.465c-1.862-1.862-3.724-3.724-5.585-3.724s-3.724-1.862-7.447-1.862c-3.724 0-3.724 0-7.447 1.862-1.862 0-3.724 1.862-5.585 3.724l-119.156 119.156c-3.724 3.724-5.585 7.447-5.585 13.033s1.862 9.309 5.585 13.033c7.447 7.447 18.618 7.447 24.204 0l89.367-89.367v255.069c0 9.309 7.447 18.618 18.618 18.618 5.585 0 9.309-1.862 13.033-5.585s5.585-7.447 5.585-13.033v-256.931l98.676 98.676c7.447 7.447 18.618 7.447 24.204 0 3.724-1.862 5.585-5.585 5.585-11.171z" />
<glyph unicode="&#xe915;" glyph-name="pa-notification-bar" d="M512 157.556c-40.96 0-76.335-33.513-76.335-76.335s33.513-76.335 76.335-76.335 76.335 33.513 76.335 76.335-35.375 76.335-76.335 76.335zM512 42.124c-22.342 0-39.098 18.618-39.098 39.098s18.618 39.098 39.098 39.098 39.098-18.618 39.098-39.098-16.756-39.098-39.098-39.098zM835.956 323.258v204.8c0 76.335-27.927 148.945-76.335 208.524-48.407 57.716-115.433 96.815-189.905 111.709-7.447 26.065-31.651 44.684-59.578 44.684s-52.131-18.618-59.578-44.684c-72.611-13.033-139.636-53.993-189.905-111.709-48.407-57.716-76.335-132.189-76.335-208.524v-204.8c-20.48-13.033-35.375-39.098-35.375-67.025 0-42.822 35.375-78.196 78.196-78.196h571.578c42.822 0 78.196 35.375 78.196 78.196-1.862 27.927-16.756 53.993-40.96 67.025zM798.72 213.411h-573.44c-22.342 0-40.96 18.618-40.96 40.96 0 16.756 11.171 33.513 27.927 39.098l11.171 3.724v230.865c0 141.498 106.124 264.378 247.622 284.858l14.895 1.862v14.895c0 13.033 13.033 24.204 26.065 24.204s26.065-11.171 26.065-24.204v-14.895l14.895-1.862c141.498-20.48 247.622-143.36 247.622-284.858v-197.353h-413.324v-35.375h428.218c14.895-5.585 24.204-22.342 24.204-37.236 0-26.065-18.618-44.684-40.96-44.684z" />
<glyph unicode="&#xe916;" glyph-name="pa-preview-window" d="M772.655 777.542c-39.098 0-70.749-31.651-70.749-70.749s31.651-70.749 70.749-70.749 70.749 31.651 70.749 70.749c0 39.098-31.651 70.749-70.749 70.749zM772.655 665.833c-22.342 0-40.96 18.618-40.96 40.96s18.618 40.96 40.96 40.96 40.96-18.618 40.96-40.96c0-22.342-18.618-40.96-40.96-40.96zM888.087 872.495h-739.142c-44.684 0-83.782-37.236-83.782-83.782v-523.171c0-44.684 37.236-81.92 83.782-81.92h221.556l154.531-158.255 147.084 143.36h215.971c44.684 0 70.749 44.684 70.749 89.367v530.618c0 44.684-26.065 83.782-70.749 83.782zM657.222 202.24l-132.189-128.465-141.498 141.498-236.451 1.862c-26.065 0-48.407 20.48-48.407 46.545v115.433c3.724 0 7.447 1.862 9.309 5.585l238.313 238.313 420.771-420.771h-109.847zM925.324 256.233c0-26.065-9.309-53.993-35.375-53.993h-72.611c0 1.862-1.862 1.862-1.862 3.724l-215.971 212.247 117.295 117.295 208.524-208.524v-70.749zM925.324 375.389l-195.491 195.491c-3.724 3.724-7.447 5.585-11.171 5.585s-9.309-1.862-11.171-5.585l-130.327-128.465-217.833 215.971c-3.724 3.724-7.447 5.585-11.171 5.585s-9.309-1.862-11.171-5.585l-238.313-234.589v364.916c0 26.065 24.204 48.407 50.269 48.407h739.142c26.065 0 35.375-22.342 35.375-48.407v-413.324z" />
<glyph unicode="&#xe917;" glyph-name="pa-separator" d="M299.753 425.658h-215.971c-13.033 0-22.342 9.309-22.342 22.342v0c0 13.033 9.309 22.342 22.342 22.342h215.971c13.033 0 22.342-9.309 22.342-22.342v0c0-13.033-9.309-22.342-22.342-22.342zM936.495 425.658h-215.971c-13.033 0-22.342 9.309-22.342 22.342v0c0 13.033 9.309 22.342 22.342 22.342h215.971c13.033 0 22.342-9.309 22.342-22.342v0c0-13.033-9.309-22.342-22.342-22.342zM633.018 550.4c-14.895 16.756-35.375 26.065-59.578 26.065-31.651 0-52.131-18.618-63.302-33.513-11.171 14.895-31.651 33.513-63.302 33.513-22.342 0-44.684-9.309-59.578-26.065s-22.342-37.236-22.342-59.578c0-24.204 9.309-46.545 29.789-70.749 16.756-20.48 40.96-40.96 68.887-65.164l1.862-1.862c9.309-9.309 20.48-16.756 31.651-27.927 3.724-3.724 7.447-3.724 11.171-3.724s7.447 1.862 11.171 3.724c11.171 9.309 20.48 18.618 29.789 26.065l1.862 1.862c27.927 24.204 52.131 44.684 70.749 65.164 20.48 24.204 29.789 46.545 29.789 70.749 3.724 24.204-5.585 44.684-18.618 61.44zM538.065 520.611c9.309 13.033 22.342 20.48 35.375 20.48s24.204-5.585 33.513-14.895c9.309-9.309 13.033-22.342 13.033-37.236 0-35.375-35.375-65.164-87.505-109.847v0c-7.447-5.585-14.895-13.033-22.342-18.618-7.447 7.447-14.895 13.033-22.342 18.618-52.131 44.684-87.505 74.473-87.505 109.847 0 14.895 3.724 27.927 13.033 37.236s20.48 14.895 33.513 14.895c14.895 0 26.065-7.447 35.375-20.48 5.585-9.309 9.309-18.618 11.171-22.342 1.862-7.447 9.309-11.171 16.756-11.171s14.895 5.585 16.756 11.171c1.862 5.585 3.724 14.895 11.171 22.342z" />
<glyph unicode="&#xe918;" glyph-name="pa-table" d="M61.44-2.56v901.12h901.12v-901.12h-901.12zM530.618 36.538h392.844v390.982h-392.844v-390.982zM100.538 36.538h390.982v390.982h-390.982v-390.982zM530.618 466.618h392.844v392.844h-392.844v-392.844zM100.538 466.618h390.982v392.844h-390.982v-392.844z" />
<glyph unicode="&#xe919;" glyph-name="pa-tabs" d="M938.356 732.858h-852.713c-13.033 0-22.342 9.309-22.342 22.342s11.171 22.342 22.342 22.342h850.851c13.033 0 22.342-9.309 22.342-22.342s-9.309-22.342-20.48-22.342zM938.356 425.658h-852.713c-13.033 0-22.342 9.309-22.342 22.342s9.309 22.342 22.342 22.342h850.851c13.033 0 22.342-9.309 22.342-22.342s-9.309-22.342-20.48-22.342zM938.356 118.458h-852.713c-13.033 0-22.342 9.309-22.342 22.342s9.309 22.342 22.342 22.342h850.851c13.033 0 22.342-9.309 22.342-22.342s-9.309-22.342-20.48-22.342z" />
<glyph unicode="&#xe91a;" glyph-name="pa-twitter-feed" d="M951.389 729.135c-7.447 5.585-16.756 5.585-24.204 0-5.585-3.724-11.171-7.447-20.48-9.309 27.927 33.513 27.927 57.716 27.927 63.302 0 7.447-5.585 13.033-11.171 16.756-7.447 3.724-14.895 1.862-20.48-1.862-37.236-26.065-74.473-33.513-96.815-33.513-35.375 33.513-81.92 52.131-132.189 52.131-106.124 0-193.629-85.644-193.629-193.629 0-7.447 0-14.895 1.862-22.342-176.873 3.724-322.095 171.287-322.095 173.149-3.724 3.724-9.309 5.585-16.756 5.585s-13.033-3.724-16.756-9.309c-44.684-78.196-26.065-150.807 5.585-201.076-5.585 3.724-13.033 3.724-18.618 0-7.447-3.724-11.171-9.309-11.171-18.618-1.862-81.92 35.375-130.327 72.611-158.255-1.862-1.862-5.585-3.724-7.447-5.585-5.585-5.585-7.447-13.033-3.724-20.48 26.065-83.782 87.505-115.433 130.327-126.604-48.407-35.375-109.847-42.822-156.393-42.822-29.789 0-50.269 3.724-50.269 3.724-9.309 1.862-18.618-3.724-22.342-11.171-3.724-9.309-1.862-18.618 5.585-24.204 93.091-68.887 204.8-83.782 281.135-83.782 61.44 0 104.262 9.309 106.124 9.309 398.429 93.091 413.324 450.56 413.324 513.862 74.473 68.887 85.644 94.953 87.505 102.4 3.724 9.309 0 16.756-7.447 22.342zM830.371 611.84c0-3.724 22.342-389.12-379.811-482.211 0 0-40.96-9.309-96.815-9.309-52.131 0-122.88 7.447-189.905 37.236 61.44 3.724 135.913 22.342 189.905 81.92 5.585 5.585 7.447 14.895 3.724 22.342s-11.171 11.171-18.618 11.171c-3.724 0-83.782 1.862-122.88 74.473 18.618 0 35.375 1.862 48.407 7.447 7.447 3.724 13.033 11.171 11.171 20.48s-7.447 14.895-16.756 16.756c-3.724 1.862-96.815 22.342-113.571 119.156 14.895-5.585 31.651-9.309 48.407-7.447 7.447 1.862 14.895 7.447 16.756 14.895s0 16.756-5.585 20.48c-3.724 3.724-91.229 80.058-53.993 180.596 50.269-52.131 189.905-175.011 357.469-165.702 5.585 0 11.171 3.724 14.895 7.447 3.724 5.585 5.585 11.171 3.724 16.756-3.724 13.033-5.585 24.204-5.585 37.236 0 83.782 68.887 152.669 152.669 152.669 40.96 0 80.058-16.756 107.985-44.684 3.724-3.724 9.309-5.585 14.895-5.585h3.724c14.895 0 39.098 1.862 65.164 11.171-9.309-9.309-20.48-18.618-33.513-29.789-7.447-5.585-9.309-14.895-7.447-24.204 3.724-7.447 11.171-13.033 20.48-13.033 3.724 0 18.618 1.862 35.375 5.585-11.171-11.171-26.065-26.065-44.684-42.822-3.724 0-5.585-5.585-5.585-13.033z" />
<glyph unicode="&#xe91b;" glyph-name="pa-unfold" d="M960.698 446.138c0-9.309-7.447-18.618-18.618-18.618h-93.091v-93.091c0-9.309-7.447-18.618-18.618-18.618-9.309 0-18.618 7.447-18.618 18.618v93.091h-93.091c-9.309 0-18.618 7.447-18.618 18.618 0 9.309 7.447 18.618 18.618 18.618h93.091v93.091c0 9.309 7.447 18.618 18.618 18.618 9.309 0 18.618-7.447 18.618-18.618v-93.091h93.091c9.309 0 18.618-9.309 18.618-18.618zM599.505 559.709c0-11.171-9.309-20.48-20.48-20.48h-495.244c-11.171 0-20.48 9.309-20.48 20.48s9.309 20.48 20.48 20.48h495.244c11.171 0 20.48-9.309 20.48-20.48zM709.353 781.265c0-11.171-9.309-20.48-20.48-20.48h-605.091c-11.171 0-20.48 9.309-20.48 20.48s9.309 20.48 20.48 20.48h605.091c11.171 0 20.48-9.309 20.48-20.48zM599.505 336.291c0-11.171-9.309-20.48-20.48-20.48h-495.244c-11.171 0-20.48 9.309-20.48 20.48s9.309 20.48 20.48 20.48h495.244c11.171 0 20.48-9.309 20.48-20.48zM709.353 114.735c0-11.171-9.309-20.48-20.48-20.48h-605.091c-11.171 0-20.48 9.309-20.48 20.48s9.309 20.48 20.48 20.48h605.091c11.171 0 20.48-9.309 20.48-20.48z" />
<glyph unicode="&#xe91c;" glyph-name="pa-whatsapp" d="M512 898.56c-247.622 0-450.56-202.938-450.56-450.56 0-85.644 24.204-167.564 68.887-238.313-18.618-61.44-50.269-180.596-50.269-180.596-1.862-5.585 0-13.033 5.585-16.756 3.724-3.724 11.171-5.585 16.756-3.724l178.735 55.855c70.749-42.822 150.807-65.164 232.727-65.164 247.622 0 450.56 202.938 450.56 450.56s-204.8 448.698-452.422 448.698zM512 32.815c-78.196 0-154.531 22.342-219.695 63.302-1.862 1.862-5.585 1.862-9.309 1.862-1.862 0-3.724 0-5.585 0l-156.393-48.407c11.171 40.96 31.651 117.295 44.684 158.255 1.862 5.585 0 9.309-1.862 14.895-44.684 67.025-67.025 145.222-67.025 225.28 0 229.004 186.182 415.185 415.185 415.185s415.185-186.182 415.185-415.185-186.182-415.185-415.185-415.185zM806.167 341.876c-31.651 18.618-59.578 35.375-78.196 48.407-14.895 9.309-26.065 16.756-33.513 20.48-22.342 11.171-39.098 3.724-46.545-3.724 0 0-1.862-1.862-1.862-1.862-24.204-35.375-53.993-68.887-63.302-70.749-11.171 1.862-57.716 29.789-106.124 68.887-48.407 40.96-80.058 80.058-83.782 106.124 31.651 31.651 42.822 52.131 42.822 76.335s-55.855 122.88-65.164 134.051c-9.309 9.309-33.513 11.171-67.025 5.585-3.724 0-5.585-1.862-9.309-5.585s-102.4-104.262-55.855-227.142c52.131-134.051 182.458-288.582 351.884-314.647 18.618-3.724 37.236-3.724 53.993-3.724 98.676 0 158.255 50.269 173.149 148.945-1.862 7.447-3.724 14.895-11.171 18.618zM592.058 213.411c-178.735 26.065-290.444 202.938-323.956 292.305s27.927 167.564 44.684 186.182c13.033 1.862 26.065 3.724 31.651 1.862 11.171-16.756 52.131-93.091 53.993-107.985 0-9.309-3.724-22.342-39.098-57.716-3.724-3.724-5.585-7.447-5.585-13.033 0-91.229 191.767-215.971 225.28-215.971 29.789 0 67.025 50.269 89.367 81.92 1.862 0 3.724 0 5.585-1.862 5.585-3.724 16.756-9.309 31.651-18.618 18.618-11.171 42.822-27.927 70.749-42.822-11.171-61.44-46.545-124.742-184.32-104.262z" />
<glyph unicode="&#xe91d;" glyph-name="pa-yelp-reviews" d="M458.007 591.36l-26.065 11.171c-96.815 40.96-96.815 40.96-104.262 40.96-14.895 0-26.065-7.447-33.513-18.618-14.895-20.48-16.756-72.611-13.033-102.4 1.862-14.895 3.724-22.342 7.447-29.789 7.447-13.033 18.618-20.48 31.651-20.48h1.862c5.585 0 11.171 1.862 59.578 16.756l35.375 11.171c9.309 3.724 16.756 5.585 22.342 7.447l7.447 1.862c5.585 1.862 7.447 1.862 7.447 1.862 16.756 5.585 27.927 18.618 27.927 39.098 1.862 18.618-7.447 35.375-24.204 40.96zM450.56 552.262c0-5.585-1.862-5.585-3.724-7.447-3.724-1.862-16.756-5.585-39.098-11.171l-3.724-1.862c-18.618-5.585-76.335-24.204-81.92-26.065 0 0 0 0-1.862 1.862 0 0 0 1.862 0 1.862-1.862 1.862-3.724 7.447-3.724 16.756-3.724 31.651 1.862 70.749 7.447 80.058 1.862 1.862 1.862 1.862 3.724 1.862 5.585-1.862 59.578-24.204 93.091-37.236l26.065-11.171c3.724-1.862 3.724-5.585 3.724-7.447zM502.691 507.578c-16.756 7.447-37.236 1.862-48.407-11.171-14.895-18.618-18.618-20.48-18.618-22.342-67.025-80.058-68.887-80.058-70.749-87.505-1.862-5.585-1.862-11.171-1.862-16.756 1.862-7.447 3.724-14.895 9.309-20.48 16.756-20.48 83.782-46.545 117.295-46.545h7.447c14.895 1.862 24.204 11.171 29.789 24.204 1.862 7.447 1.862 7.447 1.862 102.4v39.098c0 16.756-9.309 31.651-26.065 39.098zM493.382 468.48v-40.96c0-59.578 0-83.782 0-89.367 0 0-1.862-1.862-1.862-1.862-16.756-1.862-81.92 20.48-91.229 33.513-1.862 1.862-1.862 1.862-1.862 1.862v1.862c1.862 3.724 33.513 40.96 63.302 76.335 3.724 1.862 5.585 5.585 9.309 9.309l1.862 1.862c1.862 3.724 5.585 7.447 11.171 13.033 0 0 1.862 1.862 3.724 1.862s1.862 0 3.724-1.862 1.862-3.724 1.862-5.585zM729.833 488.96c-5.585 3.724-5.585 5.585-94.953 33.513-7.447 1.862-16.756 5.585-22.342 7.447l-5.585 1.862c-3.724 1.862-5.585 1.862-7.447 1.862-14.895 7.447-33.513 1.862-46.545-13.033-11.171-14.895-13.033-35.375-3.724-48.407l14.895-24.204c53.993-87.505 55.855-89.367 61.44-94.953 5.585-3.724 14.895-7.447 22.342-7.447 1.862 0 3.724 0 5.585 0s3.724 0 7.447 0h1.862c27.927 11.171 78.196 74.473 81.92 104.262 1.862 18.618-3.724 31.651-14.895 39.098zM709.353 459.171v0c-3.724-16.756-44.684-70.749-59.578-76.335-3.724 0-3.724 0-3.724 0-3.724 3.724-29.789 46.545-53.993 85.644l-14.895 24.204c0 1.862-1.862 3.724 1.862 9.309 1.862 1.862 3.724 1.862 3.724 1.862s0 0 3.724-1.862h1.862c5.585-1.862 14.895-5.585 35.375-11.171 48.407-16.756 78.196-26.065 85.644-27.927 0-1.862 0-1.862 0-3.724zM666.531 732.858v0c-13.033 5.585-27.927 5.585-37.236-1.862-7.447-3.724-7.447-3.724-61.44-80.058l-5.585-7.447c-7.447-9.309-16.756-22.342-18.618-24.204-11.171-13.033-11.171-33.513-1.862-48.407 7.447-13.033 22.342-20.48 35.375-20.48h3.724c1.862 0 3.724 0 5.585 1.862 1.862 0 1.862 0 3.724 1.862 5.585 1.862 13.033 3.724 24.204 5.585 102.4 24.204 102.4 24.204 107.985 29.789 11.171 7.447 16.756 20.48 16.756 33.513v1.862c-1.862 29.789-46.545 94.953-72.611 107.985zM705.629 621.149c0-1.862 0-3.724 0-3.724-3.724-1.862-33.513-9.309-81.92-20.48l-16.756-3.724c-13.033-3.724-20.48-3.724-24.204-7.447h-1.862c-1.862 0-5.585 1.862-7.447 3.724s-1.862 5.585-1.862 5.585c1.862 1.862 7.447 7.447 20.48 27.927l3.724 5.585c42.822 57.716 53.993 70.749 53.993 72.611 0 0 1.862 0 1.862-1.862 13.033-5.585 52.131-59.578 53.993-78.196zM517.585 874.356v0c-3.724 14.895-13.033 24.204-27.927 27.927-29.789 7.447-130.327-20.48-152.669-42.822-9.309-9.309-14.895-24.204-9.309-37.236l1.862-1.862c3.724-7.447 93.091-148.945 119.156-188.044 13.033-22.342 27.927-31.651 44.684-31.651 3.724 0 7.447 0 11.171 1.862 14.895 3.724 29.789 16.756 29.789 55.855-3.724 29.789-14.895 201.076-16.756 215.971zM493.382 634.182c-5.585-1.862-13.033 9.309-14.895 14.895-39.098 61.44-104.262 163.84-117.295 184.32 0 0 0 1.862 1.862 1.862 13.033 13.033 98.676 37.236 119.156 33.513 0-1.862 1.862-1.862 1.862-1.862 1.862-35.375 13.033-175.011 13.033-210.385v0c1.862-14.895-1.862-20.48-3.724-22.342zM342.575 148.247c-3.724 11.171-13.033 18.618-24.204 18.618l-50.269 3.724-18.618 46.545c-3.724 11.171-14.895 16.756-26.065 16.756s-22.342-7.447-26.065-16.756l-18.618-46.545-50.269-3.724c-11.171 0-20.48-7.447-24.204-18.618s0-22.342 9.309-29.789l39.098-31.651-11.171-48.407c-1.862-9.309 0-16.756 5.585-24.204 9.309-11.171 26.065-14.895 37.236-7.447l42.822 26.065 42.822-26.065c3.724-3.724 9.309-5.585 14.895-5.585 9.309 0 16.756 3.724 22.342 11.171s7.447 14.895 5.585 24.204l-18.618 48.407 40.96 33.513c7.447 7.447 11.171 18.618 7.447 29.789zM269.964 107.287c-7.447-5.585-11.171-14.895-7.447-24.204l11.171-46.545-40.96 26.065c-3.724 1.862-7.447 3.724-13.033 3.724s-9.309-1.862-13.033-3.724l-39.098-26.065 11.171 46.545c1.862 9.309-1.862 18.618-7.447 24.204l-37.236 29.789 48.407 3.724c9.309 0 16.756 7.447 20.48 14.895l18.618 44.684 18.618-44.684c3.724-9.309 11.171-14.895 20.48-14.895l48.407-3.724-39.098-29.789zM633.018 148.247c-3.724 11.171-13.033 18.618-24.204 18.618l-50.269 3.724-18.618 46.545c-3.724 11.171-14.895 16.756-26.065 16.756s-22.342-7.447-26.065-16.756l-18.618-46.545-50.269-3.724c-11.171 0-20.48-7.447-24.204-18.618s0-22.342 9.309-29.789l39.098-31.651-11.171-48.407c-1.862-9.309 0-16.756 3.724-24.204 9.309-11.171 26.065-14.895 37.236-7.447l42.822 26.065 42.822-26.065c3.724-3.724 9.309-5.585 14.895-5.585 9.309 0 16.756 3.724 22.342 11.171s7.447 14.895 5.585 24.204l-16.756 48.407 40.96 33.513c7.447 7.447 11.171 18.618 7.447 29.789zM562.269 107.287c-7.447-5.585-11.171-14.895-7.447-24.204l11.171-46.545-40.96 26.065c-3.724 1.862-7.447 3.724-13.033 3.724s-9.309-1.862-13.033-3.724l-40.96-24.204 11.171 46.545c1.862 9.309-1.862 18.618-7.447 24.204l-37.236 29.789 48.407 3.724c9.309 0 16.756 7.447 20.48 14.895l18.618 44.684 18.618-44.684c3.724-9.309 11.171-14.895 20.48-14.895l48.407-3.724-37.236-31.651zM923.462 148.247c-3.724 11.171-13.033 18.618-24.204 18.618l-50.269 3.724-18.618 46.545c-3.724 11.171-14.895 16.756-26.065 16.756s-22.342-7.447-26.065-16.756l-18.618-46.545-52.131-1.862c-11.171 0-20.48-7.447-24.204-18.618s0-22.342 9.309-29.789l39.098-31.651-11.171-48.407c-1.862-9.309 0-16.756 5.585-24.204 9.309-11.171 26.065-14.895 37.236-7.447l42.822 26.065 42.822-26.065c5.585-3.724 9.309-5.585 14.895-5.585 7.447 0 16.756 3.724 22.342 11.171s7.447 14.895 5.585 24.204l-16.756 46.545 40.96 33.513c9.309 7.447 11.171 18.618 7.447 29.789zM852.713 107.287c-7.447-5.585-11.171-14.895-7.447-24.204l11.171-46.545-40.96 26.065c-3.724 1.862-7.447 3.724-13.033 3.724s-9.309-1.862-13.033-3.724l-40.96-24.204 11.171 46.545c1.862 9.309 0 18.618-7.447 24.204l-37.236 29.789 48.407 1.862c9.309 0 16.756 7.447 20.48 14.895l18.618 44.684 18.618-44.684c3.724-9.309 11.171-14.895 20.48-14.895l48.407-3.724-37.236-29.789z" />
<glyph unicode="&#xe91e;" glyph-name="pa-admin-icon" d="M1024.437 448.219c-0.596-158.073-72.763-299.17-185.761-392.653l-0.858-0.689h-13.548l-104.891 323.851 285.828 207.597 3.059-11.8c9.961-37.82 15.839-81.301 16.17-126.103l0.001-0.204zM798.047 22.972l-10.489-6.556c-77.973-50.165-173.175-79.974-275.339-79.974s-197.366 29.808-277.383 81.202l2.043-1.228-10.489 6.556 285.828 206.723zM305.058 380.913l-107.076-329.533h-9.178c-115.562 94.543-188.753 237.138-188.804 396.829v0.009c0.139 45.7 6.029 89.961 16.983 132.181l-0.813-3.69 3.059 11.8zM493.426 960l-109.262-336.963h-352.697l4.37 13.111c73.442 181.603 242.662 310.074 443.369 323.333l1.545 0.082zM992.97 623.037h-352.697l-109.262 336.963h12.674c202.344-13.418 371.597-142.068 443.682-320.403l1.232-3.448z" />
<glyph unicode="&#xe91f;" glyph-name="pa-lottie-animations" d="M273.772 219.293c-5.722-1.206-12.299-1.899-19.037-1.904h-9.313c-12.276-1.794-21.813-11.547-23.26-23.779l-0.012-0.129c-0.186-1.288-0.293-2.775-0.293-4.287 0-12.022 6.73-22.472 16.627-27.789l0.168-0.083c6.668-2.33 14.356-3.676 22.357-3.676 4.437 0 8.778 0.414 12.985 1.205l-0.434-0.068h9.309l7.193 1.904c5.924 1.693 12.060 3.174 17.983 5.289 37.952 15.749 69.911 39.221 95.137 68.637l0.281 0.335c37.234 40.691 70.33 86.259 97.955 135.319l1.906 3.683c11.848 21.157 22.85 40.833 34.063 61.355 28.002 54.161 56.091 99.914 87.072 143.466l-2.444-3.618c22.386 31.7 48.457 58.847 78.044 81.655l0.872 0.646c15.984 13.227 36.694 21.251 59.279 21.251 1.474 0 2.941-0.034 4.399-0.102l-0.206 0.008c2.627-0.831 5.648-1.31 8.78-1.31 16.615 0 30.083 13.469 30.083 30.083 0 13.482-8.869 24.892-21.090 28.716l-0.213 0.057-5.501 1.058c-6.103 0.909-13.146 1.428-20.311 1.428s-14.208-0.519-21.095-1.522l0.784 0.094c-4.231-1.269-8.463-2.116-12.694-2.962-4.136-0.705-7.765-1.66-11.261-2.895l0.471 0.145c-56.489-19.888-94.995-63.471-129.481-105.785-10.090-12.821-20.404-27.378-30-42.437l-1.313-2.204-9.098-13.752c-16.926-25.177-31.947-52.681-46.334-79.127l-12.060-21.157c-11.002-20.099-21.157-40.198-33.64-60.086-6.347-11.002-13.329-21.157-21.157-32.582l-10.367-16.291c-23.341-39.006-50.62-72.547-82.016-101.715l-0.285-0.262c-16.751-17.293-38.011-30.122-61.886-36.594l-0.95-0.219zM981.686 917.686v-939.372h-939.372v939.372h939.372zM1024 960h-1024v-1024h1024z" />
<glyph unicode="&#xe920;" glyph-name="pa-icon-list" horiz-adv-x="1260" d="M262.564 907.487h971.487c14.501 0 26.256-11.755 26.256-26.256s-11.755-26.256-26.256-26.256h-971.487c-14.501 0-26.256 11.755-26.256 26.256s11.755 26.256 26.256 26.256zM157.538 881.231c0-43.503-35.266-78.769-78.769-78.769s-78.769 35.266-78.769 78.769c0 43.503 35.266 78.769 78.769 78.769s78.769-35.266 78.769-78.769zM262.564 474.256h971.487c14.501 0 26.256-11.755 26.256-26.256s-11.755-26.256-26.256-26.256h-971.487c-14.501 0-26.256 11.755-26.256 26.256s11.755 26.256 26.256 26.256zM157.538 448c0-43.503-35.266-78.769-78.769-78.769s-78.769 35.266-78.769 78.769c0 43.503 35.266 78.769 78.769 78.769s78.769-35.266 78.769-78.769zM262.564 41.026h971.487c14.501 0 26.256-11.755 26.256-26.256s-11.755-26.256-26.256-26.256h-971.487c-14.501 0-26.256 11.755-26.256 26.256s11.755 26.256 26.256 26.256zM157.538 14.769c0-43.503-35.266-78.769-78.769-78.769s-78.769 35.266-78.769 78.769c0 43.503 35.266 78.769 78.769 78.769s78.769-35.266 78.769-78.769z" />
<glyph unicode="&#xe921;" glyph-name="horizontal-mouse-scroll" d="M693.248 523.776c0 98.304-79.872 177.152-177.152 177.152h-8.192c-98.304 0-177.152-79.872-177.152-177.152v-150.528c0-98.304 79.872-177.152 177.152-177.152h8.192c98.304 0 177.152 79.872 177.152 177.152v150.528zM663.552 372.224c0-40.96-16.384-77.824-43.008-104.448s-63.488-43.008-104.448-43.008h-8.192c-40.96 0-77.824 16.384-104.448 43.008s-43.008 63.488-43.008 104.448v151.552c0 40.96 16.384 77.824 43.008 104.448s63.488 43.008 104.448 43.008h8.192c40.96 0 77.824-16.384 104.448-43.008s43.008-63.488 43.008-104.448v-151.552zM512 551.424c-8.192 0-15.36-7.168-15.36-15.36v-44.032c0-8.192 7.168-15.36 15.36-15.36s15.36 7.168 15.36 15.36v44.032c-1.024 8.192-7.168 15.36-15.36 15.36zM54.272 457.216c-4.096-5.12-4.096-13.312 0-18.432l59.392-74.752c5.12-6.144 14.336-7.168 20.48-2.048s7.168 14.336 2.048 20.48v0l-51.2 65.536 52.224 65.536c5.12 6.144 4.096 15.36-2.048 20.48s-15.36 4.096-20.48-2.048l-60.416-74.752zM886.784 382.464c-5.12-6.144-4.096-15.36 2.048-20.48s15.36-4.096 20.48 2.048l59.392 74.752c4.096 5.12 4.096 13.312 0 18.432l-59.392 74.752c-5.12 6.144-14.336 7.168-20.48 2.048s-7.168-14.336-2.048-20.48v0l52.224-65.536-52.224-65.536z" />
<glyph unicode="&#xe922;" glyph-name="vertical-mouse-scroll" d="M693.248 523.776c0 98.304-79.872 177.152-177.152 177.152h-8.192c-98.304 0-177.152-79.872-177.152-177.152v-150.528c0-98.304 79.872-177.152 177.152-177.152h8.192c98.304 0 177.152 79.872 177.152 177.152v150.528zM663.552 372.224c0-40.96-16.384-77.824-43.008-104.448s-63.488-43.008-104.448-43.008h-8.192c-40.96 0-77.824 16.384-104.448 43.008s-43.008 63.488-43.008 104.448v151.552c0 40.96 16.384 77.824 43.008 104.448s63.488 43.008 104.448 43.008h8.192c40.96 0 77.824-16.384 104.448-43.008s43.008-63.488 43.008-104.448v-151.552zM512 551.424c-8.192 0-15.36-7.168-15.36-15.36v-44.032c0-8.192 7.168-15.36 15.36-15.36s15.36 7.168 15.36 15.36v44.032c-1.024 8.192-7.168 15.36-15.36 15.36zM502.784-9.728c5.12-4.096 13.312-4.096 18.432 0l74.752 59.392c6.144 5.12 7.168 14.336 2.048 20.48s-14.336 7.168-20.48 2.048v0l-65.536-51.2-65.536 52.224c-6.144 5.12-15.36 4.096-20.48-2.048s-4.096-15.36 2.048-20.48l74.752-60.416zM577.536 822.784c6.144-5.12 15.36-4.096 20.48 2.048s4.096 15.36-2.048 20.48l-74.752 59.392c-5.12 4.096-13.312 4.096-18.432 0l-74.752-59.392c-6.144-5.12-7.168-14.336-2.048-20.48s14.336-7.168 20.48-2.048v0l65.536 52.224 65.536-52.224z" />
<glyph unicode="&#xe923;" glyph-name="pa-image-scroll" d="M651.636 650.938c-33.513 0-61.44-27.927-61.44-61.44s27.927-61.44 61.44-61.44 61.44 27.927 61.44 61.44c0 33.513-27.927 61.44-61.44 61.44zM651.636 552.262c-20.48 0-35.375 16.756-35.375 35.375 0 20.48 16.756 35.375 35.375 35.375s35.375-14.895 35.375-35.375-16.756-35.375-35.375-35.375zM772.655 721.687h-519.447c-7.447 0-13.033-5.585-13.033-13.033v-521.309c0-7.447 5.585-13.033 13.033-13.033h519.447c7.447 0 13.033 5.585 13.033 13.033v521.309c-1.862 7.447-5.585 13.033-13.033 13.033zM268.102 202.24v109.847l139.636 139.636 249.484-249.484h-389.12zM690.735 202.24c0 0 0 0-1.862 1.862l-126.604 126.604 67.025 67.025 128.465-128.465 1.862-67.025h-68.887zM759.622 304.64l-119.156 119.156c-3.724 3.724-13.033 3.724-18.618 0l-76.335-76.335-130.327 130.327c-5.585 5.585-13.033 5.585-18.618 0l-130.327-130.327v346.298h493.382v-389.12zM891.811 343.738c1.862-1.862 5.585-3.724 9.309-3.724s7.447 1.862 9.309 3.724l94.953 94.953c1.862 1.862 3.724 5.585 3.724 9.309s-1.862 7.447-3.724 9.309l-94.953 94.953c-5.585 5.585-13.033 5.585-18.618 0s-5.585-13.033 0-18.618l85.644-85.644-85.644-85.644c-5.585-5.585-5.585-13.033 0-18.618zM132.189 552.262c-1.862 1.862-5.585 3.724-9.309 3.724s-7.447-1.862-9.309-3.724l-94.953-94.953c-1.862-1.862-3.724-5.585-3.724-9.309s1.862-7.447 3.724-9.309l94.953-94.953c5.585-5.585 13.033-5.585 18.618 0s5.585 13.033 0 18.618l-85.644 85.644 85.644 85.644c5.585 5.585 5.585 13.033 0 18.618zM407.738 68.189c-1.862-1.862-3.724-5.585-3.724-9.309s1.862-7.447 3.724-9.309l94.953-94.953c1.862-1.862 5.585-3.724 9.309-3.724s7.447 1.862 9.309 3.724l94.953 94.953c5.585 5.585 5.585 13.033 0 18.618s-13.033 5.585-18.618 0l-85.644-85.644-85.644 85.644c-5.585 5.585-13.033 5.585-18.618 0zM616.262 827.811c1.862 1.862 3.724 5.585 3.724 9.309s-1.862 7.447-3.724 9.309l-94.953 94.953c-1.862 1.862-5.585 3.724-9.309 3.724s-7.447-1.862-9.309-3.724l-94.953-94.953c-5.585-5.585-5.585-13.033 0-18.618s13.033-5.585 18.618 0l85.644 85.644 85.644-85.644c5.585-5.585 13.033-5.585 18.618 0z" />
<glyph unicode="&#xe924;" glyph-name="pa-banner" d="M942.080 900.422h-858.298c-11.171 0-22.342-9.309-22.342-20.48v-860.16c0-11.171 9.309-22.342 22.342-22.342h858.298c11.171 0 22.342 9.309 22.342 22.342v860.16c0 11.171-9.309 20.48-22.342 20.48zM104.262 857.6h817.338v-644.189l-197.353 197.353c-7.447 7.447-22.342 7.447-29.789 0l-128.465-126.604-215.971 214.109c-9.309 9.309-22.342 9.309-29.789 0l-215.971-214.109v573.44zM104.262 42.124v182.458l230.865 230.865 413.324-413.324c0-1.862-644.189-1.862-644.189 0zM921.6 42.124h-111.709c0 0 0 1.862-1.862 1.862l-212.247 208.524 111.709 111.709 212.247-212.247 1.862-109.847zM744.727 582.051c-55.855 0-100.538 44.684-100.538 100.538s44.684 100.538 100.538 100.538 100.538-44.684 100.538-100.538-44.684-100.538-100.538-100.538zM744.727 740.305c-31.651 0-57.716-26.065-57.716-57.716s26.065-57.716 57.716-57.716 57.716 26.065 57.716 57.716-26.065 57.716-57.716 57.716z" />
<glyph unicode="&#xe925;" glyph-name="pa-blog" d="M837.818 19.782h-733.556c-11.171 0-22.342 9.309-22.342 22.342v729.833c0 11.171 9.309 22.342 22.342 22.342h344.436v-42.822h-323.956v-688.873h688.873v322.095h42.822v-346.298c0-9.309-9.309-18.618-18.618-18.618zM558.545 312.087h-161.978c-11.171 0-22.342 9.309-22.342 22.342v160.116c0 5.585 1.862 11.171 5.585 14.895l364.916 361.193c7.447 7.447 22.342 7.447 29.789 0l161.978-161.978c7.447-9.309 7.447-22.342 0-29.789l-363.055-361.193c-3.724-3.724-9.309-5.585-14.895-5.585zM417.047 354.909h130.327l340.713 340.713-130.327 132.189-340.713-342.575v-130.327z" />
<glyph unicode="&#xe926;" glyph-name="pa-button" d="M919.738 820.364h-813.615c-52.131 0-96.815-42.822-96.815-96.815v-284.858c0-52.131 42.822-96.815 96.815-96.815h405.876v27.927h-405.876c-37.236 0-68.887 29.789-68.887 68.887v284.858c0 37.236 29.789 68.887 68.887 68.887h811.753c37.236 0 68.887-29.789 68.887-68.887v-284.858c0-37.236-29.789-68.887-68.887-68.887h-52.131l31.651-27.927h20.48c52.131 0 96.815 42.822 96.815 96.815v284.858c0 53.993-42.822 96.815-94.953 96.815zM884.364 274.851c9.309 0 13.033 11.171 5.585 16.756l-55.855 50.269-31.651 27.927-243.898 227.142c-5.585 5.585-16.756 1.862-16.756-7.447v-452.422c0-9.309 9.309-13.033 16.756-7.447l83.782 80.058c5.585 3.724 13.033 3.724 14.895-3.724l55.855-126.604c3.724-5.585 9.309-7.447 13.033-5.585l83.782 37.236c5.585 3.724 7.447 9.309 5.585 13.033l-55.855 126.604c-3.724 5.585 1.862 13.033 9.309 14.895l115.433 9.309zM768.931 127.767l-26.065-9.309c-5.585-3.724-11.171 0-13.033 5.585l-59.578 137.775c-3.724 5.585-11.171 9.309-14.895 3.724l-63.302-61.44c-5.585-5.585-16.756-1.862-16.756 7.447v305.338c0 9.309 9.309 13.033 16.756 7.447l169.425-154.531 31.651-27.927 26.065-24.204c7.447-5.585 3.724-16.756-5.585-16.756l-89.367-5.585c-7.447 0-11.171-7.447-9.309-14.895l61.44-139.636c1.862-3.724-1.862-9.309-7.447-13.033z" />
<glyph unicode="&#xe927;" glyph-name="pa-carousel" d="M687.011 189.207c-26.065 0-46.545-20.48-46.545-46.545s20.48-46.545 46.545-46.545 46.545 20.48 46.545 46.545-20.48 46.545-46.545 46.545zM687.011 114.735c-14.895 0-27.927 13.033-27.927 27.927s13.033 27.927 27.927 27.927c14.895 0 27.927-13.033 27.927-27.927s-13.033-27.927-27.927-27.927zM336.989 189.207c-26.065 0-46.545-20.48-46.545-46.545s20.48-46.545 46.545-46.545c26.065 0 46.545 20.48 46.545 46.545s-20.48 46.545-46.545 46.545zM336.989 114.735c-14.895 0-27.927 13.033-27.927 27.927s13.033 27.927 27.927 27.927c14.895 0 27.927-13.033 27.927-27.927 1.862-14.895-11.171-27.927-27.927-27.927zM512 189.207c-26.065 0-46.545-20.48-46.545-46.545s20.48-46.545 46.545-46.545c27.927 0 46.545 20.48 46.545 46.545s-20.48 46.545-46.545 46.545zM512 114.735c-14.895 0-27.927 13.033-27.927 27.927s13.033 27.927 27.927 27.927c16.756 0 27.927-13.033 27.927-27.927s-13.033-27.927-27.927-27.927zM761.484 278.575h-497.105c-7.447 0-13.033 5.585-13.033 13.033v497.105c0 7.447 5.585 13.033 13.033 13.033h497.105c7.447 0 13.033-5.585 13.033-13.033v-497.105c0-7.447-7.447-13.033-13.033-13.033zM277.411 304.64h471.040v471.040h-471.040v-471.040zM152.669 801.745h-135.913v-26.065h122.88v-471.040h-122.88v-26.065h135.913c7.447 0 13.033 5.585 13.033 13.033v497.105c0 7.447-5.585 13.033-13.033 13.033zM858.298 788.713v-497.105c0-7.447 5.585-13.033 13.033-13.033h135.913v26.065h-122.88v471.040h122.88v26.065h-135.913c-7.447 0-13.033-5.585-13.033-13.033z" />
<glyph unicode="&#xe928;" glyph-name="pa-grid" d="M474.764 485.236h-431.942v433.804h431.942v-433.804zM85.644 529.92h346.298v344.436h-346.298v-344.436zM981.178 485.236h-431.942v433.804h431.942v-433.804zM592.058 529.92h346.298v344.436h-346.298v-344.436zM474.764-23.040h-431.942v433.804h431.942v-433.804zM85.644 19.782h346.298v346.298h-346.298v-346.298zM981.178-23.040h-431.942v433.804h431.942v-433.804zM592.058 19.782h346.298v346.298h-346.298v-346.298z" />
<glyph unicode="&#xe929;" glyph-name="pa-image-button" d="M1010.967 207.825l-303.476 180.596c-3.724 1.862-7.447 1.862-13.033 0-3.724-3.724-5.585-7.447-5.585-11.171l74.473-348.16c0-5.585 5.585-7.447 7.447-7.447 5.585-1.862 9.309 1.862 11.171 5.585l52.131 74.473c0 1.862 1.862 1.862 3.724 1.862s1.862 0 3.724-1.862l63.302-89.367c1.862-3.724 7.447-5.585 9.309-5.585s5.585 0 7.447 1.862l57.716 40.96c3.724 1.862 3.724 5.585 5.585 7.447 0 3.724 0 7.447-1.862 7.447l-63.302 89.367c0 0 0 1.862 0 3.724s1.862 1.862 1.862 1.862l89.367 24.204c5.585 1.862 7.447 5.585 7.447 9.309s-3.724 13.033-7.447 14.895zM867.607 178.036c-1.862-3.724 0-7.447 1.862-11.171l70.749-96.815c1.862-1.862 1.862-3.724 0-5.585l-18.618-13.033h-1.862c-1.862 0-1.862 0-3.724 1.862l-70.749 96.815c-1.862 3.724-7.447 5.585-9.309 5.585v0c-3.724 0-7.447-1.862-9.309-5.585l-39.098-57.716c-1.862-1.862-3.724-1.862-3.724-1.862s-3.724 0-3.724 3.724l-48.407 232.727c0 1.862 1.862 3.724 1.862 3.724s1.862 1.862 3.724 0l204.8-122.88c1.862-1.862 1.862-3.724 1.862-3.724s0-1.862-3.724-3.724l-67.025-18.618c0 0-3.724-1.862-5.585-3.724zM275.549 755.2c-52.131 0-94.953-42.822-94.953-94.953s40.96-94.953 94.953-94.953c52.131 0 94.953 42.822 94.953 94.953 1.862 53.993-42.822 94.953-94.953 94.953zM275.549 602.531c-31.651 0-57.716 24.204-57.716 57.716 0 31.651 24.204 57.716 57.716 57.716s57.716-24.204 57.716-57.716c0-29.789-26.065-57.716-57.716-57.716zM891.811 440.553c-7.447-7.447-18.618-7.447-26.065-1.862l-186.182 171.287-150.807-165.702 27.927-27.927c3.724-3.724 5.585-7.447 5.585-13.033s-1.862-9.309-5.585-13.033c-7.447-7.447-20.48-7.447-26.065 0l-121.018 119.156-271.825-236.451c-3.724-3.724-7.447-5.585-13.033-5.585s-9.309 1.862-13.033 7.447-7.447 20.48 1.862 26.065l284.858 251.345c7.447 7.447 18.618 7.447 24.204 0l76.335-78.196 161.978 176.873c3.724 3.724 7.447 7.447 13.033 7.447s9.309-1.862 13.033-5.585l201.076-184.32c9.309-9.309 9.309-20.48 3.724-27.927zM979.316 870.633v-534.342c0-9.309-7.447-18.618-18.618-18.618s-18.618 7.447-18.618 18.618v515.724h-897.396v-698.182h599.505c9.309 0 18.618-7.447 18.618-18.618s-7.447-18.618-18.618-18.618h-618.124c-9.309 0-18.618 7.447-18.618 18.618v735.418c0 9.309 7.447 18.618 18.618 18.618h936.495c9.309 0 16.756-7.447 16.756-18.618z" />
<glyph unicode="&#xe92a;" glyph-name="pa-image-separator" d="M651.636 528.058c-33.513 0-61.44 27.927-61.44 61.44s27.927 61.44 61.44 61.44 61.44-27.927 61.44-61.44-27.927-61.44-61.44-61.44zM651.636 623.011c-18.618 0-35.375-14.895-35.375-35.375 0-18.618 14.895-35.375 35.375-35.375 18.618 0 35.375 14.895 35.375 35.375s-16.756 35.375-35.375 35.375zM997.935 459.171h-214.109v249.484c0 7.447-5.585 13.033-13.033 13.033h-519.447c-7.447 0-13.033-5.585-13.033-13.033v-249.484h-212.247c-5.585 0-11.171-5.585-11.171-11.171s5.585-11.171 11.171-11.171h212.247v-249.484c0-7.447 5.585-13.033 13.033-13.033h519.447c7.447 0 13.033 5.585 13.033 13.033v249.484h212.247c5.585 0 11.171 5.585 11.171 11.171s-3.724 11.171-9.309 11.171zM266.24 202.24v109.847l139.636 139.636 249.484-249.484h-389.12zM757.76 202.24h-68.887c0 0 0 0-1.862 1.862l-126.604 126.604 67.025 67.025 128.465-128.465v-67.025zM757.76 304.64l-119.156 119.156c-3.724 3.724-13.033 3.724-18.618 0l-76.335-76.335-130.327 130.327c-5.585 5.585-13.033 5.585-18.618 0l-130.327-130.327v346.298h493.382v-389.12z" />
<glyph unicode="&#xe92b;" glyph-name="pa-modal-box" d="M925.324 881.804h-822.924c-11.171 0-22.342-9.309-22.342-20.48v-822.924c0-11.171 9.309-22.342 22.342-22.342h822.924c11.171 0 20.48 9.309 20.48 22.342v822.924c0 11.171-11.171 20.48-20.48 20.48zM124.742 838.982h778.24v-141.498h-778.24v141.498zM902.982 60.742h-778.24v593.92h778.24v-593.92zM856.436 747.753h-98.676c-11.171 0-22.342 9.309-22.342 22.342s9.309 22.342 22.342 22.342h98.676c11.171 0 22.342-9.309 22.342-22.342s-9.309-22.342-22.342-22.342z" />
<glyph unicode="&#xe92c;" glyph-name="pa-persons" d="M601.367 431.244c81.92 35.375 139.636 117.295 139.636 214.109 0 128.465-102.4 232.727-229.004 232.727s-229.004-104.262-229.004-232.727c0-94.953 57.716-178.735 139.636-214.109-186.182-40.96-327.68-210.385-327.68-413.324h42.822c0 210.385 167.564 379.811 374.225 379.811s374.225-171.287 374.225-379.811h42.822c0 202.938-139.636 372.364-327.68 413.324zM325.818 645.353c0 104.262 83.782 189.905 186.182 189.905s186.182-85.644 186.182-189.905-83.782-189.905-186.182-189.905-186.182 85.644-186.182 189.905z" />
<glyph unicode="&#xe92d;" glyph-name="pa-pricing-table" d="M640.465 371.665c0-50.269-40.96-93.091-93.091-93.091h-11.171c-1.862 0-3.724-1.862-3.724-3.724v-48.407c0-11.171-9.309-18.618-18.618-18.618-11.171 0-18.618 9.309-18.618 18.618v46.545c0 1.862-1.862 3.724-3.724 3.724h-67.025c-11.171 0-18.618 9.309-18.618 18.618s9.309 18.618 18.618 18.618h122.88c31.651 0 55.855 24.204 55.855 55.855s-24.204 55.855-55.855 55.855h-68.887c-52.131 0-93.091 40.96-93.091 93.091s40.96 93.091 93.091 93.091h11.171c1.862 0 3.724 1.862 3.724 3.724v48.407c0 9.309 9.309 18.618 18.618 18.618s18.618-9.309 18.618-18.618v-48.407c0-1.862 1.862-3.724 3.724-3.724h63.302c9.309 0 18.618-9.309 18.618-18.618 0-11.171-9.309-18.618-18.618-18.618h-121.018c-31.651 0-55.855-26.065-55.855-55.855 0-31.651 26.065-55.855 55.855-55.855h68.887c52.131 1.862 94.953-39.098 94.953-91.229zM841.542 930.211h-657.222c-22.342 0-39.098-18.618-39.098-39.098v-888.087c0-22.342 18.618-39.098 39.098-39.098h657.222c22.342 0 39.098 18.618 39.098 39.098v888.087c-1.862 20.48-18.618 39.098-39.098 39.098zM834.095 6.749h-644.189v878.778h646.051c0 0 0-878.778-1.862-878.778z" />
<glyph unicode="&#xe92e;" glyph-name="pa-progress-bar" d="M942.080 155.695v-42.822h-409.6v-68.887h-42.822v68.887h-407.738v42.822h407.738v68.887h42.822v-68.887zM942.080 784.989v-42.822h-586.473v-68.887h-42.822v68.887h-230.865v42.822h230.865v68.887h42.822v-68.887zM822.924 470.342v-42.822h-117.295v-68.887h-42.822v68.887h-580.887v42.822h580.887v68.887h42.822v-68.887z" />
<glyph unicode="&#xe92f;" glyph-name="pa-testimonials" d="M318.371 615.564h383.535v-42.822h-383.535v42.822zM318.371 474.065h383.535v-42.822h-383.535v42.822zM182.458 86.807l53.993 173.149c-96.815 53.993-154.531 152.669-154.531 262.516 0 167.564 137.775 301.615 305.338 301.615h247.622c167.564 1.862 305.338-134.051 305.338-301.615s-137.775-301.615-305.338-301.615h-160.116l-275.549-148.945c-9.309-5.585-20.48 3.724-16.756 14.895zM389.12 783.127c-145.222 0-262.516-117.295-262.516-260.655 0-100.538 55.855-188.044 147.084-232.727l16.756-7.447-42.822-137.775 219.695 119.156h169.425c145.222 0 262.516 117.295 262.516 258.793s-117.295 260.655-262.516 260.655h-247.622z" />
<glyph unicode="&#xe930;" glyph-name="pa-title" d="M822.924 898.56h-619.985c-13.033 0-22.342-9.309-22.342-22.342v-102.4c0-13.033 9.309-22.342 22.342-22.342s22.342 7.447 22.342 20.48v80.058h264.378v-809.891h-55.855c-13.033 0-22.342-9.309-22.342-22.342s9.309-22.342 22.342-22.342h156.393c13.033 0 22.342 9.309 22.342 22.342s-9.309 22.342-22.342 22.342h-55.855v809.891h264.378v-80.058c0-13.033 9.309-22.342 22.342-22.342s22.342 9.309 22.342 22.342v104.262c1.862 11.171-9.309 22.342-20.48 22.342v0z" />
<glyph unicode="&#xe931;" glyph-name="pa-vertical-scroll" d="M512 898.56c-65.164 0-121.018-53.993-121.018-121.018s53.993-121.018 121.018-121.018c67.025 0 121.018 53.993 121.018 121.018 1.862 67.025-52.131 121.018-121.018 121.018zM512 690.036c-48.407 0-87.505 39.098-87.505 87.505s39.098 87.505 87.505 87.505 87.505-39.098 87.505-87.505c0-48.407-39.098-87.505-87.505-87.505zM512 243.2c-65.164 0-121.018-55.855-121.018-121.018 0-67.025 53.993-121.018 121.018-121.018s121.018 53.993 121.018 121.018c1.862 65.164-52.131 121.018-121.018 121.018zM512 34.676c-48.407 0-87.505 39.098-87.505 87.505s39.098 87.505 87.505 87.505 87.505-39.098 87.505-87.505-39.098-87.505-87.505-87.505zM512 570.88c-67.025 0-121.018-53.993-121.018-121.018s55.855-122.88 121.018-122.88c67.025 0 121.018 53.993 121.018 121.018 1.862 68.887-52.131 122.88-121.018 122.88zM512 362.356c-48.407 0-87.505 39.098-87.505 87.505s39.098 87.505 87.505 87.505 87.505-39.098 87.505-87.505-39.098-87.505-87.505-87.505z" />
<glyph unicode="&#xe932;" glyph-name="pa-video-box" d="M703.767 457.309l-284.858 210.385c-5.585 3.724-14.895 0-14.895-7.447v-422.633c0-7.447 9.309-11.171 14.895-7.447l286.72 210.385c3.724 5.585 3.724 13.033-1.862 16.756zM446.836 306.502v282.996l191.767-141.498-191.767-141.498zM512 930.211c-273.687 0-495.244-217.833-495.244-482.211s223.418-482.211 495.244-482.211c273.687 0 495.244 215.971 495.244 482.211s-221.556 482.211-495.244 482.211zM512 19.782c-247.622 0-446.836 193.629-446.836 430.080s199.215 430.080 446.836 430.080 446.836-193.629 446.836-430.080-201.076-430.080-446.836-430.080z" />
<glyph unicode="&#xe933;" glyph-name="pa-countdown" d="M917.876 861.324h-223.418v35.375c0 11.171-9.309 20.48-22.342 20.48s-20.48-9.309-20.48-20.48v-35.375h-282.996v35.375c0 11.171-9.309 20.48-22.342 20.48-11.171 0-22.342-9.309-22.342-20.48v-35.375h-223.418c-9.309 0-18.618-9.309-18.618-20.48v-837.818c0-11.171 9.309-22.342 22.342-22.342h815.476c11.171 0 22.342 9.309 22.342 22.342v837.818c-1.862 11.171-11.171 20.48-24.204 20.48zM124.742 818.502h201.076v-44.684c0-11.171 9.309-22.342 22.342-22.342 11.171 0 22.342 9.309 22.342 22.342v44.684h284.858v-44.684c0-11.171 9.309-22.342 22.342-22.342s22.342 9.309 22.342 22.342v44.684h201.076v-148.945h-776.378v148.945zM897.396 25.367h-772.655v601.367h772.655v-601.367zM385.396 140.8h-40.96v262.516c0 22.342 0 42.822 1.862 61.44-3.724-3.724-7.447-7.447-11.171-11.171-5.585-3.724-24.204-20.48-61.44-48.407l-22.342 27.927 96.815 74.473h37.236v-366.778zM571.578 140.8l152.669 329.542h-201.076v39.098h245.76v-33.513l-150.807-335.127h-46.545z" />
<glyph unicode="&#xe934;" glyph-name="pa-counter" d="M420.771 265.542h-40.96v258.793c0 22.342 0 42.822 1.862 61.44-3.724-3.724-7.447-7.447-11.171-11.171s-24.204-20.48-59.578-48.407l-22.342 27.927 94.953 72.611h35.375c1.862 1.862 1.862-361.193 1.862-361.193zM660.945 265.542h-40.96v258.793c0 22.342 0 42.822 1.862 61.44-3.724-3.724-7.447-7.447-11.171-11.171s-24.204-20.48-59.578-48.407l-22.342 27.927 94.953 72.611h35.375v-361.193zM512 939.52c-279.273 0-504.553-221.556-504.553-491.52s225.28-489.658 504.553-489.658 504.553 219.695 504.553 489.658-225.28 491.52-504.553 491.52zM512 8.611c-251.345 0-456.145 197.353-456.145 439.389s204.8 439.389 456.145 439.389 456.145-197.353 456.145-439.389-204.8-439.389-456.145-439.389z" />
<glyph unicode="&#xe935;" glyph-name="pa-dual-heading" d="M990.487 222.72h-93.091c-11.171 0-18.618 7.447-18.618 16.756s7.447 16.756 18.618 16.756h27.927v173.149h-255.069v-173.149h27.927c11.171 0 18.618-7.447 18.618-16.756s-9.309-16.756-18.618-16.756h-93.091c-11.171 0-18.618 7.447-18.618 16.756s7.447 16.756 18.618 16.756h27.927v383.535h-27.927c-11.171 0-18.618 7.447-18.618 16.756s9.309 16.756 18.618 16.756h93.091c11.171 0 18.618-7.447 18.618-16.756s-7.447-16.756-18.618-16.756h-27.927v-175.011h253.207v175.011h-27.927c-11.171 0-18.618 7.447-18.618 16.756s9.309 16.756 18.618 16.756h93.091c11.171 0 18.618-7.447 18.618-16.756s-9.309-16.756-18.618-16.756h-27.927v-381.673h26.065c11.171 0 18.618-7.447 18.618-16.756 3.724-11.171-3.724-18.618-14.895-18.618zM897.396 245.062c-3.724 0-7.447-1.862-7.447-5.585s3.724-5.585 7.447-5.585h93.091c3.724 0 7.447 1.862 7.447 5.585s-3.724 5.585-7.447 5.585h-39.098v405.876h39.098c3.724 0 7.447 1.862 7.447 5.585s-3.724 5.585-7.447 5.585h-93.091c-3.724 0-7.447-1.862-7.447-5.585s3.724-5.585 7.447-5.585h39.098v-197.353h-277.411v197.353h39.098c3.724 0 7.447 1.862 7.447 5.585s-3.724 5.585-7.447 5.585h-93.091c-3.724 0-7.447-1.862-7.447-5.585s3.724-5.585 7.447-5.585h39.098v-405.876h-39.098c-3.724 0-7.447-1.862-7.447-5.585s3.724-5.585 7.447-5.585h93.091c3.724 0 7.447 1.862 7.447 5.585s-3.724 5.585-7.447 5.585h-39.098v195.491h275.549v-197.353l-37.236 1.862zM437.527 233.891c0-7.447-5.585-11.171-13.033-11.171h-96.815c-7.447 0-13.033 5.585-13.033 11.171 0 7.447 5.585 11.171 13.033 11.171h33.513v189.905h-271.825v-189.905h33.513c7.447 0 13.033-5.585 13.033-11.171 0-7.447-7.447-11.171-13.033-11.171h-94.953c-7.447 0-13.033 5.585-13.033 11.171 0 7.447 5.585 11.171 13.033 11.171h33.513v404.015h-33.513c-7.447 0-13.033 5.585-13.033 11.171s5.585 11.171 13.033 11.171h96.815c7.447 0 13.033-5.585 13.033-11.171s-5.585-11.171-13.033-11.171h-35.375v-189.905h271.825v189.905h-33.513c-7.447 0-13.033 5.585-13.033 11.171s5.585 11.171 13.033 11.171h96.815c7.447 0 13.033-5.585 13.033-11.171s-5.585-11.171-13.033-11.171h-33.513v-404.015h33.513c5.585 0 13.033-3.724 13.033-11.171z" />
<glyph unicode="&#xe936;" glyph-name="pa-fancy-text" d="M860.16 161.28c-26.065 0-50.269 11.171-65.164 31.651l-9.309 11.171-9.309-11.171c-16.756-20.48-40.96-31.651-65.164-31.651-7.447 0-13.033 5.585-13.033 13.033s5.585 13.033 13.033 13.033c33.513 0 61.44 31.651 61.44 70.749v176.873h-37.236c-7.447 0-13.033 5.585-13.033 13.033s5.585 13.033 13.033 13.033h37.236v176.873c0 39.098-27.927 70.749-61.44 70.749-7.447 0-13.033 5.585-13.033 13.033s5.585 13.033 13.033 13.033c26.065 0 50.269-11.171 65.164-31.651l9.309-11.171 9.309 11.171c16.756 20.48 40.96 31.651 65.164 31.651 7.447 0 13.033-5.585 13.033-13.033s-5.585-13.033-13.033-13.033c-33.513 0-61.44-31.651-61.44-70.749v-176.873h37.236c7.447 0 13.033-5.585 13.033-13.033s-5.585-13.033-13.033-13.033h-37.236v-176.873c0-39.098 27.927-70.749 61.44-70.749 7.447 0 13.033-5.585 13.033-13.033s-7.447-13.033-13.033-13.033zM342.575 647.215c0-7.447-5.585-13.033-13.033-13.033h-137.775c-7.447 0-13.033 5.585-13.033 13.033s7.447 13.033 13.033 13.033h135.913c9.309 0 14.895-5.585 14.895-13.033zM342.575 254.371c0-7.447-5.585-13.033-13.033-13.033h-137.775c-7.447 0-13.033 5.585-13.033 13.033s7.447 13.033 13.033 13.033h135.913c9.309 1.862 14.895-3.724 14.895-13.033zM616.262 254.371c0-7.447-5.585-13.033-13.033-13.033h-137.775c-7.447 0-13.033 5.585-13.033 13.033s7.447 13.033 13.033 13.033h135.913c7.447 1.862 14.895-3.724 14.895-13.033zM1012.829 367.942v-78.196c1.862-26.065-20.48-48.407-46.545-48.407-7.447 0-14.895 5.585-14.895 13.033 0 3.724 1.862 7.447 3.724 11.171 1.862 1.862 5.585 3.724 11.171 3.724 11.171 0 20.48 7.447 20.48 20.48v78.196c0 7.447 7.447 13.033 13.033 13.033 7.447 0 13.033-5.585 13.033-13.033zM1001.658 522.473c-7.447 0-13.033 5.585-13.033 13.033v78.196c0 11.171-9.309 18.618-20.48 20.48-3.724 0-7.447 1.862-11.171 3.724s-3.724 3.724-3.724 7.447c0 7.447 7.447 13.033 13.033 13.033 26.065 0 48.407-20.48 48.407-46.545v-78.196c1.862-5.585-5.585-11.171-13.033-11.171zM616.262 647.215c0-7.447-5.585-13.033-13.033-13.033h-137.775c-7.447 0-13.033 5.585-13.033 13.033s7.447 13.033 13.033 13.033h135.913c7.447 0 14.895-5.585 14.895-13.033zM72.611 647.215c0-3.724-1.862-7.447-3.724-11.171s-7.447-3.724-11.171-3.724c-11.171 0-20.48-7.447-20.48-18.618v-78.196c0-7.447-7.447-13.033-14.895-13.033s-13.033 5.585-13.033 13.033v78.196c0 26.065 22.342 46.545 48.407 46.545 7.447 1.862 14.895-3.724 14.895-13.033zM70.749 254.371c0-5.585-5.585-13.033-13.033-13.033-26.065 0-48.407 22.342-48.407 46.545v78.196c0 7.447 7.447 13.033 13.033 13.033 7.447 0 13.033-5.585 13.033-13.033v-78.196c0-11.171 9.309-18.618 20.48-20.48 3.724 0 7.447-1.862 11.171-3.724 1.862-1.862 3.724-5.585 3.724-9.309z" />
<glyph unicode="&#xe937;" glyph-name="pa-google-maps" d="M666.531 863.185v0l-20.48 7.447-20.48-7.447-249.484-80.058-292.305 93.091v-759.622l269.964-83.782 22.342-7.447 22.342 7.447 249.484 80.058 292.305-93.091v757.76l-273.687 85.644zM353.745 75.636l-227.142 74.473v670.255l227.142-74.473v-670.255zM396.567 745.891l227.142 72.611v-668.393l-227.142-74.473v670.255zM895.535 75.636l-227.142 72.611v670.255l227.142-72.611v-670.255zM666.531 863.185v0 0 0zM623.709 863.185v0 0 0z" />
<glyph unicode="&#xe938;" glyph-name="pa-contact-form" d="M1012.829 526.196c0 1.862-1.862 3.724-1.862 5.585s-1.862 3.724-3.724 3.724c-1.862 1.862-3.724 3.724-5.585 3.724v0l-161.978 83.782v85.644c0 1.862 0 3.724 0 3.724 0 3.724-3.724 9.309-5.585 11.171l-202.938 202.938c0 0 0 1.862-1.862 1.862-1.862 1.862-1.862 1.862-3.724 1.862-3.724 1.862-5.585 1.862-9.309 1.862h-411.462c-11.171 0-22.342-9.309-22.342-22.342v-288.582l-161.978-85.644-1.862-1.862c0 0 0 0-1.862-1.862s-1.862-3.724-3.724-3.724c0-1.862-1.862-3.724-1.862-3.724v0-1.862c0-1.862 0-3.724 0-3.724v-536.204c0-11.171 9.309-20.48 20.48-20.48h960.698c11.171 0 20.48 9.309 20.48 20.48v538.065c0 1.862 0 3.724 0 5.585zM839.68 574.604l104.262-53.993-104.262-44.684v98.676zM634.88 863.185l134.051-134.051h-134.051v134.051zM227.142 892.975h368.64v-184.32c0-11.171 9.309-22.342 22.342-22.342h182.458v-229.004l-286.72-122.88-284.858 124.742v433.804zM184.32 576.465v-100.538l-104.262 46.545 104.262 53.993zM971.869 6.749h-919.738v482.211l450.56-197.353c5.585-1.862 11.171-1.862 16.756 0l454.284 197.353v-482.211z" />
<glyph unicode="&#xe939;" glyph-name="mega-menu-icon" horiz-adv-x="1025" d="M21.1 960h982.854c11.653 0 21.1-9.447 21.1-21.1s-9.447-21.1-21.1-21.1h-982.854c-11.653 0-21.1 9.447-21.1 21.1s9.447 21.1 21.1 21.1zM1025.055 938.9v-190.325c0-11.653-9.447-21.1-21.1-21.1s-21.1 9.447-21.1 21.1v190.325c0 11.653 9.447 21.1 21.1 21.1s21.1-9.447 21.1-21.1zM42.201 938.9v-190.325c0-11.653-9.447-21.1-21.1-21.1s-21.1 9.447-21.1 21.1v190.325c0 11.653 9.447 21.1 21.1 21.1s21.1-9.447 21.1-21.1zM21.1 769.675h982.854c11.653 0 21.1-9.447 21.1-21.1s-9.447-21.1-21.1-21.1h-982.854c-11.653 0-21.1 9.447-21.1 21.1s9.447 21.1 21.1 21.1zM345.835 596.441h332.542c11.653 0 21.1-9.447 21.1-21.1s-9.447-21.1-21.1-21.1h-332.542c-11.653 0-21.1 9.447-21.1 21.1s9.447 21.1 21.1 21.1zM395.843 864.837h215.646c11.653 0 21.1-9.447 21.1-21.1s-9.447-21.1-21.1-21.1h-215.646c-11.653 0-21.1 9.447-21.1 21.1s9.447 21.1 21.1 21.1zM703.486 864.837h215.646c11.653 0 21.1-9.447 21.1-21.1s-9.447-21.1-21.1-21.1h-215.646c-11.653 0-21.1 9.447-21.1 21.1s9.447 21.1 21.1 21.1zM87.988 864.837h215.646c11.653 0 21.1-9.447 21.1-21.1s-9.447-21.1-21.1-21.1h-215.646c-11.653 0-21.1 9.447-21.1 21.1s9.447 21.1 21.1 21.1zM345.835 371.3h332.542c11.653 0 21.1-9.447 21.1-21.1s-9.447-21.1-21.1-21.1h-332.542c-11.653 0-21.1 9.447-21.1 21.1s9.447 21.1 21.1 21.1zM345.835 145.948h332.542c11.653 0 21.1-9.447 21.1-21.1s-9.447-21.1-21.1-21.1h-332.542c-11.653 0-21.1 9.447-21.1 21.1s9.447 21.1 21.1 21.1zM804.767 743.299v-785.988c0-11.653-9.447-21.1-21.1-21.1s-21.1 9.447-21.1 21.1v785.988c0 11.653 9.447 21.1 21.1 21.1s21.1-9.447 21.1-21.1zM262.066 743.088v-785.988c0-11.653-9.447-21.1-21.1-21.1s-21.1 9.447-21.1 21.1v785.988c0 11.653 9.447 21.1 21.1 21.1s21.1-9.447 21.1-21.1zM240.966-21.799h542.701c11.653 0 21.1-9.447 21.1-21.1s-9.447-21.1-21.1-21.1h-542.701c-11.653 0-21.1 9.447-21.1 21.1s9.447 21.1 21.1 21.1z" />
<glyph unicode="&#xe93a;" glyph-name="woo-products" d="M999.669 787.147c-21.087 27.383-53.882 44.854-90.758 44.854-0.151 0-0.301 0-0.452-0.001h-728.625l-26.869 108.536c-2.926 11.257-12.987 19.439-24.962 19.464h-102.403c-14.138 0-25.6-11.462-25.6-25.6s11.462-25.6 25.6-25.6v0h82.512l195.279-783.868c-28.736-18.459-47.501-50.258-47.501-86.44 0-56.554 45.846-102.4 102.4-102.4 47.423 0 87.317 32.237 98.963 75.993l0.162 0.715h236.747c11.775-44.517 51.692-76.8 99.148-76.8 56.554 0 102.4 45.846 102.4 102.4s-45.846 102.4-102.4 102.4c-47.457 0-87.373-32.283-98.987-76.086l-0.161-0.714h-236.536c-11.689 44.68-51.655 77.13-99.216 77.223h-5.089l-25.6 102.612h487.881c53.283 0.024 98.113 36.185 111.313 85.303l0.185 0.807 92.879 358.4c2.386 8.685 3.758 18.657 3.758 28.95 0 26.46-9.062 50.803-24.252 70.096l0.184-0.242zM793.6 88.965c28.277 0 51.2-22.923 51.2-51.2s-22.923-51.2-51.2-51.2c-28.277 0-51.2 22.923-51.2 51.2v0 0c-0.003 0.19-0.004 0.414-0.004 0.639 0 28.172 22.66 51.052 50.747 51.407h0.034zM409.6 38.612c0-28.277-22.923-51.2-51.2-51.2s-51.2 22.923-51.2 51.2c0 28.277 22.923 51.2 51.2 51.2v0 0c28.181-0.237 50.963-23.019 51.2-51.177v-0.023zM877.593 342.638c-7.148-27.808-31.994-48.028-61.564-48.028-0.15 0-0.3 0.001-0.449 0.002h-500.975l-31.947 128h615.669zM911.445 473.812h-641.481l-31.947 126.942h707.702zM970.473 700.826l-12.483-48.026h-731.61l-32.159 126.942h715.531c35.054 0 63.471-28.417 63.471-63.471v0c0.001-0.131 0.002-0.285 0.002-0.44 0-5.566-0.773-10.951-2.218-16.054l0.1 0.414z" />
</font>
</defs>
</svg>
